&title=ウルトラリズム
&artist=電音部 (Prod. Hylen)
&first=0
&des=Dream Away feat. Yukacco (Hylen Remix)
&lv_5=13+
&inote_5=(145)
{16},,,,E5,,E1,,C,,E7,E3,E6,E4,E5,,E1,,,,
4x,,4x,,8,,2h,6h,3h,5h,4,,{32}7h/1h[64:1],2h[64:1],3h[64:1],,,,,,
{16}E5,,,E4,,,E3,,,E2,,,E1/D1,,,,
5xh[16:3],,,6xh[16:3],,,7xh[16:3],,,8xh[16:3],,,1h,,,,
A1,E2,,A7,E7,,E3,A3,,E6,A5,,C,,,,
8,8,,2,2,,6,6,,4,4,,{32}3h/5h[64:1],6h[64:1],7h[64:1],,,,,,
{16}E6,,E7,,E8,,E1,,E2,,E3,,E4,,,,
5/4h[8:1],,3h[8:1],,2h[8:1],,1h[8:1],,8v1-3[4:1],,7h,,6,,,,
7-5[8:1],,,,4,,4,,3x,,3,,2-5[6:1],,1,,
4,,,,6,,6,,5x,,5,,4-1[6:1],,4,,
3,,,,2-4[8:1],,2,,5x-7[8:1],,5,,
3,,3,,8,,8h[8:1],,5,,5h[8:1],,7pp8-5[16:5],,4,,,,,,
3<6[4:1],,,,7,,7,,8xh[16:1],,8h[16:1],,E7,,E6,,
3<6[4:1],,,,7,,7,,8xh[16:1],,8h[16:1],,3,,2,,
1q5[4:1],,1,,6,,6,,8xp4[4:1],,8,,
3,,3,,2q7[4:1],,,,,,8,,8-4[6:1],,,,,,,,
2h[16:1],,6h[16:1],,1h[16:1],,5h[16:1],,4xh/8xh,,,,1h[16:1],,5h[16:1],,
2h[16:1],,6h[16:1],,3h[16:1],,7h[16:1],,4xv3[8:1]/8x-2[8:1],,,,,,,,
1h[64:1],,1h[64:1],,4h[16:1],,7h[16:1],,3xh[8:1],,8h[8:1],,
2h[16:1],,5h[16:1],,1h[8:1],,6h[8:1],,8h,8h,4h,4h,2h[8:1],,6h[8:1],,
8xv5[6:1],,,,,,,,8h[16:1],,4h[16:1],,6xh[16:1],,7h[16:1],,
1h[16:1],,5h[16:1],,3h[16:1],,2h[16:1],,7h,,7h,,4xv3[8:1]/8x-2[8:1],,,,
,,,,1h[64:1],,5h[64:1],,{48}8/4x,3x-5[12:1],2x,,,,,,,,,,6h,,,,,,,,,,,,
7/4x,3x,2x,,,,,,,,,,{8}5,6,7,8x/4x,3x/7x,2,1x-5[6:1],,
6h[8:1],,6h[8:1],,4h[8:1],,4h[8:1],,5h[8:1]/B6,B7,5h[8:1]/B8,B1,5h[8:1]/B2,B3,
B4,5,3h[8:1],,3h[8:1],,5h[8:1],,5h[8:1],,4h[8:1]/E3,E2,4h[8:1]/E1,E8,4h[8:1]/E7,E6,E5,,
4h[8:1]/3,,4h[8:1]/5,,4h[8:1]/2,,4h[8:1]/6,,
5h[8:1]/6,,5h[8:1]/4,,5h[8:1]/7,,5h[8:1]/3,,
1,1,8,8,{16}1,8,1,8,2,8V64v5V31[4:3],3,8,{1}4h[8:6],
{48}82,3,4h[48:7],,,,,,,{16}6,5h[8:1],,2,4h[8:1],,7,5h[8:1],,1x,,,,
{48}82,3,4h[48:7],,,,,,,{16}6,5h[8:1],,2,4h[8:1],,7,5h[8:1],,1x,,,,
{48}82,3,4h[48:7],,,,,,,{16}6,5h[8:1],,2,4h[8:1],,7,5h[8:1],,1x,,,,
{48}82,3,4h[48:7],,,,,,,{16}6,5,5,6,4h[8:1],,5,3h[8:1],,E2b,,,,
{48}82,3,4h[48:7],,,,,,,{16}6,5h[8:1],,2,4h[8:1],,8,5h[8:1],,1x,,,,
{48}82,3,4h[48:7],,,,,,,{16}6,5h[8:1],,2,4h[8:1],,8,5h[8:1],,1x,,,,
{48}82,3,4h[48:7],,,,,,,{16}6,5h[8:1],,2,4h[8:1],,8,5h[8:1],,1x,,,,
2,5,4,5,3,6,5,6,4,7,6,7,{48}E5,E4,E3,,,,,,,,,,
{48}17,6,5h[48:7],,,,,,,{16}3,3,5,4,7,3,5,2,4,1h,,,,
{48}17,6,5h[48:7],,,,,,,{16}3,3,5,4,7,3,5,2,4,1h,,,,
{48}17,6,5h[48:7],,,,,,,{16}3,3,5,4,7,3,5,2,4,1h,,,,
{48}17,6,5h[48:7],,,,,,,{16}3,4,4,3,5h[8:1],,4,6h[8:1],,E8b,,,,
{48}17,6,5h[48:7],,,,,,,{16}2,3h,5h,3h,5h,4h,5,5,6h,1h,,,,
{48}17,6,5h[48:7],,,,,,,{16}2,3h[48:1],5h[48:1],3h[48:1],5h[48:1],4h,5,5h,6h[16:1],1h,,,,
{48}17,6,5h[48:7],,,,,,,{16}2,3h,5h,3h,5h,4h,5h,5h,6h,1h,,,,
3h[48:1],5h[48:1],4h[48:1],5h[48:1],2h[48:1],5h[48:1],4h[48:1],5h[48:1],
1h[48:1],5h[48:1],4h[48:1],5h[48:1],{48}8h,B8,C,B4,,,,,,,,,{1}6xqq3<7b[8:8],
{4}2h[4:1],,7h[16:1]/8h[16:1],1h[16:1]/2h[16:1],
{16}5/3h[8:3],,5,,5,,5,,4x/6x,,6,5,6,7,6,,5/3h[8:3],,5,,5,,5,,4x/6x,,6,4,5,3,4,,
3/5h[8:3],,3,,3,,3,,4x/6x,,6,5,6,7,6,,3,3,5,5,4,4,6,6,5qq4[4:1],5,7,7,,,,,
6h[8:1],,4,4,5h[8:1],,3,3,4x/2xh[8:1],,4,4,
3h[8:1],,5,5,6x,4,5,3,5,4,6,4,5x/3x,,3,4,3,2,3,,
6/4h[8:1],,6,4,5,,4,5,3x,,3,5,4,6,3,,2,2,4,,7,7,5,,2,3,2,4,1-5[8:1],,,,
8xhb[2:1],,,,,,,,6x>2[4:1],,6,,8,,7,,6p4[8:3],,6,,4,,3,,1x>4[6:1],,,,7pp5[16:5],,,,,,
,,3>7[4:1],,3,,4x,,5,,6q8[8:3],,6,,8,,1,,3,,4,,1/5w1[6:1],,,,5x,,,,7,,3,,
4,7,5,5,6x,3,5,5,3,6,4,4,5,2,4,4,2,2,4,,1xs5[4:1],,,,,,,,
8h[64:1],,4h[64:1],,{48}1/5x,6x-4[12:1],7x,,,,,,,,,,3h,,,,,,,,,,,,
2/5x,6x,7x,,,,,,,,,,{8}4,3,2,1x/5x,6x/2x,7,5x/8x-4[6:1],,
3h[8:1],,3,2,4h[8:1],,4,3,5xh[8:1],3,5,4,6xh[8:1],4,6,5,
6h[8:1],,6,7,5h[8:1],,5,6,4xh[8:1],6,4,5,3xh[8:1],5,3,4,
4h[8:1],3,2h[8:1],5,6h[8:1],5,4h[8:1],7,5h[8:1],6,7h[8:1],4,3h[8:1],4,5h[8:1],2,
2,13,7,86,{16}1,8,1,8,1-7-2-6-3-5[4:3],8,1s5b[8:5],8,,,,,,,,,,,,,,,,,
{48}82,3,4h[48:7],,,,,,,{16}6,5h[8:1],,2,4h[8:1],,7,5h[8:1],,
6,6,6,6,6h[8:1],,2h[8:1],4h[8:1],,1h[8:1],3h[8:1],,8h[8:1],2h[8:1],,7,1x,,,,
{48}82,3,4h[48:7],,,,,,,{16}6,5h[8:1],,2,4h[8:1],,7,5h[8:1],,
7h[8:1],,5,5,8h[8:1],,2h[16:1],4h[16:1],3h[16:1],5h[16:1],4h[16:1],6h[16:1],
{48}E5,E4,E3,,,,E6,E7,E8,,,,{16}B1b,,,,
{48}82,3,4h[48:7],,,,,,,{16}6,5h[8:1],,2,4h[8:1],,7,2h[8:1],,
{32}6,5x,,1xh[32:3],,,7,6x,,2xh[32:3],,,8,7x,,3xh[32:3],,,1,8x,,4xh[32:3],,,
2,1x,,5xh[32:3],,,3,2x,{16}1xb/4xb,,,,
{48}82,3,4h[48:7],,,,,,,{16}6,5h[8:1],,2,4h[8:1],,7,5h[8:1],,
6x,6xh,,7x,7x,,8x,8xh,,1x,1xh,,
2x,2xh,,3x,{48}3xh,E4,E5,,,,,,,,,,
{48}17,6,5h[48:7],,,,,,,{16}3,4h[8:1],,7,5h[8:1],,2,4,4,3,3,4,4,
{32}3h[32:3],,,5,,5,,4,,4,,5,,5,,4,,4,,6,,6,,6,1xb,,,,,,,,
{48}17,6,5h[48:7],,,,,,,{16}3,4h[8:1],,7,5h[8:1],,
{32}2,4,,,4,,,4,,,4,,,5,,,5,,,5,,,5,,,6,,,6,,,6,,,6,,,,B8b,,,,,,,,
{48}17,6,5h[48:7],,,,,,,{16}3,4h[8:1],,7<6pp6>5pp5>4pp4>3pp3>2[8:9],5h[16:1],,
,,,,,,,,,,,,,,,,,,,1b,,,,
{48}17,6,5h[48:7],,,,,,,{16}3,4h[8:1],,7,5h[8:1],,2,4,,
{16}6h[16:1]`7h[16:1],,,1h[16:1]`8h[16:1],,,2h[16:1]`3h[16:1],,,
4h[16:1]`5h[16:1],,,6h[16:1]`7h[16:1],,,{48}8h[16:1]`1h[16:1],,,,B1,C,B5,,,,,,,,,
{1}7>8-5q4[4:15],,,
{4},,,{48},E5h[32:1],,,,,,,,,,
