&title=世界函数
&artist=VILLAX
&first=2.73
&des=Tails
&lv_5=13
&lv_6=13+
&lv_7=招
&inote_5=(177)
{1}1b>1[1:2]/6,
{8},,,,,,,5-1[8:1],4,,,,,,,
{16}7,6,
{8}5pp4[1:1]/3,,,,,,,1-4[8:1],
{8}8,,,,,,,7h[8:1]/3,2s6[2:1],,,,,,,5h[8:1],
{8}4z8[2:1],,,,,,,
{16}5,5,
{8}5-1[8:1],,,3-7[8:1],,,6-2[8:1],4h[8:1],
{8}6<5[1:1],,,,,,,4,5<4[1:1],,,,,,,3,
{8}4<3[1:1],,,,,,,6v3[8:1],7,,,,,,,6h[8:1],
{8}4,5,3,6,4,5,4,5h[8:1],3,2,1,8,7,6,5,4h[8:1],
{8}7,7,5,5,4,4,2,2,6-2[8:1],6,3-7[8:1],3,8-4[8:1],8,1<5[4:1],,
{4}5>1[4:1],1<3[8:3],5,8h[8:1],
{8}2/8,3,4/5,3,2-5[8:1]/4,,8,,
{8}1/7,6,4/5,6,5/7-4[8:1],,1,,
{8}2/8,3,4/5,6,7/8,1,2/8,3,
{4}2-5[8:1]/4,7>3[4:1],4h[4:1],,
{8}1/7,6,4/5,6,5/7-4[8:1],3,1,,
{8}2/8,3,4/5,3,2-5[8:1]/4,6,8,,
{8}1/7,6,4/5,3,2/8-3[8:1]*-5[8:1],17,8,,
{8}2-5[8:1],7-4[8:1],2,7,{16}1b,,,2b/6,,,7/5b,,
{8}6h[4:1],,5h[4:1],,4h[4:1],,3,3h[8:3],,2,1<4[4:1],28,17,,8,,
{8}2h[4:1],,1h[4:1],,8h[4:1],,7,7h[8:3],,6,5V37[4:1],64,53,,1,,
{8}6h[4:1],,5h[4:1],,4h[4:1],,3,3h[4:1],,1-5[8:1],8-6[8:1],1,8,,43,,
{8}2h[4:1],,1h[4:1],,8h[4:1],,7,7h[8:3],
{16}8,1,2,3,4,5,6,7,8/5b,,,3b/6,,,1b/2,,
{8}3,2,1-5[8:1],,51,6,7,8-4[8:1],,28,1<5[4:1],8,1,,8,,
{8}6,7,8-4[8:1],,48,3,2,1-5[8:1],,71,6q3[4:1],5,6,,2,,
{8}2,1,8v5[8:1],,58,4,3,2v5[8:1],,12,8>4[4:1],7,8,,1,,
{8}7,8,1p4[8:1],,51,6,7,8<5[8:1],,84,3q2[4:1],2,3,,1,1b,
{8}8-4[8:1],7,68,,2,3<6[8:1],4,5-1[8:1],,8-4[8:1],2,3,5,,67,,
{8}1-5[8:1],2,31,,7,6>3[8:1],5,4-8[8:1],,1-5[8:1],7,6,4,,32,,
{8}24,2,21,2,23,2,28,2,
{8}1h[8:1]/7h[8:1],,8h[8:1]/7h[8:1],,6h[8:1]/7h[8:1],,5h[8:1]/7h[8:1],,
{8}36,6,86,6,56,6,16,6,
{16}4,5,4,5,3,6,3,6,2,7,2,7,1,8,1,8,
{8}1-5[8:1],,1-3[8:1],,6-2[8:1],,5,5v8[8:1],,3p6[8:1],,4z8[4:1],,5,6,7,
{16}2h[8:1],,,3h[8:1]/4h[8:1],,,1/7,,8-4[8:1],,3-6[8:1],,8,,3,,
{16}1h[8:1],,,5h[8:1]/7h[8:1],,,2/8,,1-5[8:1],,6-3[8:1],,1,,6,,
{16}2h[8:1],,,4h[8:1]/3h[8:1],,,7/1,,8-4[8:1],,3<6[8:1],,8,,3,,
{16}1h[8:1],,,7h[8:1]/5h[8:1],,,8/2,,1-5[8:1],,6>3[8:1],,1,,6,,
{16}1h[8:1],,,5h[8:1]/6h[8:1],,,2/8,,7-4[8:1],,3-8[8:1],,7,,3,,
{16}5h[8:1],,,2h[8:1]/4h[8:1],,,1/7,,2-5[8:1],,6-1[8:1],,2,,6,,
{16}5h[8:1],,,4h[8:1]/6h[8:1],,,1/7,,8-5[8:1],,3>8[8:1],,8,,3,,
{16}4,,4,,35,,7,,16,,2,1,,,3b/8b,,
{1}1>5[2:1]/8,
{1}5/8>5[2:1],
{1}1>5[2:1]/5,
{4}5/8<3[2:1],4,3,2,
{1}1<5[2:1]/4,
{1}1<4[2:1]/4,
{1}5<3[2:1]/3,
{4}4>5[2:1]/8,,,1p8[4:15],
{2}8h[4:1],7h[4:1],6h[4:1],5h[4:1],4h[4:1],3h[4:1],2h[4:1],1h[4:1],
E
&inote_6=(177)
{8}5,4,3/6,4,5,4,3/6,4,
{8}5,6,7/4,6,5,6,7/4,6h[8:1],
{8}8,7,16,7,8,7,16,{16}2,3,
{4}45,17,38,26,
{8}4,5,6/3,5,4,5,6/3,5h[8:1],
{8}4,3,2/5,3,4,3,2/5,3h[8:1],
{8}1,2,83,2,1,2,8/3-1[8:1],{16}7,6,
{8}53,4-8[8:1],5,64,5-7[8:1],,35,,
{8}4,3,2/5,3,4,3,2/5,3h[8:1],
{8}5,6,4/7,6,5,6,4/7,6h[8:1],
{8}4,3,27,1,8,67,5,4h[8:1],
{4}6,17,28,35,
{8}4,5,36,7,1,8,27,6h[8:1],3,2,14,8,7,6,58,4h[8:1],
{8}8,8,26,2,4,4,62,6,
{16}7,6,5h[8:1],,1,8,7h[8:1],,3,2,1h[8:1],,5,4,3h[8:1],,
{16}8,1,2,3,4,5,6,7,8h[8:3]/5,4,3,2,1h[8:1],,,,
{16}3/6,,2,,18,,2,,7-4[8:1]/3,,8,,1/7,,2,,
{16}35,,7,8,,8,7,,2-5[8:1],,1,,2/8,,7,,
{8}6/4,7,8/1,2,3/4,5,6/4,7,
{4}8-5[8:1]*-6[8:1],8-2[8:1]*-3[8:1],8w4[8:1],8b,
{16}36,,7,,82,,1,,2-6[8:1],,8-4[8:1],,2,,8,,
{16}3,,2,,17,,8,,7-3[8:1],,1-5[8:1],,7,,1,,
{16}8q4[8:1],7,6,,1p5[8:1],2,3,,8,7,6,,4-8[8:1],3,2-6[8:1],,
{8}4,2,7,5,{16}1/3b,,,2/6b,,,4/8b,,
{8}5^2[8:1]/3,,7-3[8:1]/5,,17,,5-7[8:1],5v2[8:1],,,
{16}8,7,6,5,4h[4:1]/1v6[8:1],,,,1,,,,
{8}5-8[8:1]/7,,1-6[8:1]/5,,17,,4-2[8:1],4v7[8:1],,,
{16}1,2,3,4,5h[4:1]/6-1[8:1],,,,6,,,,
{8}8-3[8:1]/2,,8-5[8:1]/6,,84,,4v1[8:1],5v7[8:1],,,
{16}8,1,2,3,4h[4:1]/1v6[8:1],,,,1,,,,
{8}7-4[8:1]/4,,2^5[8:1]/7,,2/8v6[8:1],,8,3,
{16}4,5,3,6,2,7,1,8,7/2b,,,6b/4,,,5b/1,,
{8}26,3,4-8[8:1]/7h[4:1],,4,6,5,4-8[8:1]/1h[4:1],,4,2,3,
{16}4,5,6,5,4-2[8:1],,,,
{8}74,6,5-1[8:1]/3h[4:1],,5,3,4,5-1[8:1]/7h[4:1],,5,7,8,
{16}1-5[8:1],8,7,6,5h[8:1]/1,,,,
{8}64,7,8-4[8:1]/3h[4:1],,8,2,1,8-4[8:1]/5h[4:1],,8,6,7,
{16}8,1,2,3,4h[8:1]/1,,,,
{8}36,2,1-5[8:1]/6h[4:1],,1,7,8,1-5[8:1]/4h[4:1],,1,3,2,
{16}1,8,1,8,1pp5[8:3],,1b,,
{8}8-6[8:1]/1,8,8,,7V16[4:1],5-2[8:1],7,5,,73,45,72,
{16}8,1,8,1,8qq4[8:3],,,,
{8}1-3[8:1]/8,1,1,,2V83[4:1],4-7[8:1],2,4,,26,81,36,
{16}5,4,3,4,5,,,,
{8}45,7,45,2,45,8,45,1,
{8}56,1,34,8,57,1,24,8,
{8}34,25,56,47,34,16,56,83,
{16}4,5,4,5,3,6,3,6,2,7,2,7,{32}1,2,3,4,5,6,7,8,
{8}1-5[8:1],,1-3[8:1]/6-8[8:1],,6-2[8:1]/1,,6,5v8[8:1],
{8},3-7[8:1]/5s1[8:1],,35,,26,37,12,
{16}3/8,,2,1,2-5[8:1],1,2,,2/8-4[8:1],,7,,1/8,,2,,
{16}1/6,,7,8,7-4[8:1],8,7,,7/1-5[8:1],,2,,1/8,,7,,
{16}3/8,,2,1,2-5[8:1],8,2,,2/8p4[8:1],,7,,1/8,,2,,
{16}1/6,,7,8,7-4[8:1],1,7,,7/1q5[8:1],,2,,1/8,,7,,
{16}3/7,,2,1,3^6[8:1],1,2,,3/8-4[8:1],,7,,1/8,,3,,
{16}2/6,,7,8,6^3[8:1],8,7,,6/1-5[8:1],,2,,1/8,,6,,
{16}3/7,,2,1,3v6[8:1],1,2,,3/8-4[8:1],,7,,1/8,,3,,
{16}5,4,5,,3/6,,2,,3/8b,,,7b,8,,1b/6,,
{2}7h[4:3]/2-5[8:1],4-1[8:1],
{8}8-3[8:1],,8,7-2[8:1],,7,6-1[8:1],,
{4}3h[4:3]/6,8-6[8:1],8v5[8:1],8,
{8}4-7[8:1],,4,3-6[8:1],,3,2-5[8:1],,
{8}12,,6h[8:1],5-8[8:1],,5h[8:1],4-1[8:1],,
{8}34,,8v5[8:1],1p4[8:1],8^5[16:3],1,8-2[8:1],,
{4}8v3[8:1]/4h[4:3],8v5[8:1],8-6[8:1],8-4[8:1],
{8}58,,5,5-2[8:1],,1,1p8[4:15],,
{8}8/1b,8,8,8,7,7,7,7,6,6,6,6,5,5,5,5,
{8}4,4,4,4,3,3,3,3,2,2,2,2,1h[4:1],
E
&inote_7=(177)
{8}8,1,8,2,8,1,8,2,7,8,7,1,7,8,7,1,
{8}6,7,6,8,6,7,6,8,15,,38,,17,,58,,
{8}1,8,1,7,1,8,1,7,2,1,2,8,2,1,2,8,
{8}3,2,3,1,3,2,3,1,84,,61,,41,,82,,
{8}5,4,5,3,5,4,5,3,6,5,6,4,6,5,6,4,
{8}7,6,7,5,7,6,7,5,48,,25,,46,,82,,
{8}4,5,4,6,4,5,4,6,3,4,3,5,3,4,3,5,
{8}2,3,2,4,2,3,2,4,{16}1,2,1,,3,,1,8,1,,7,,1h[4:1],,,,
{32}8x,7x,6x,5x,4x,3x,2x,1x,{8}8h[8:1],1h[8:1],2h[8:1],3h[4:1],5h[8:1],,
{8}78,1,8,2,8,1,8,2,7,8,7,{16}4,5,6,,{8}8,7,1,
{8}5,6,5,7,5,6,5,8,14,,38,,16,,58,,
{8}1,8,1,7,1,8,1,7,2,1,2,8,2,1,2,8,
{16}3,3,4,,4,4,5,,5,5,6,,6,6,7,,7,7,8,,1,1,2,,14,,,36,,,58,,
{8}8h[4:1],,7h[4:1],,6h[4:1],,1h[8:1],8h[4:1],,1,{16}8,1,8,1,{8}8h[4:1],1,2,3,
{8}1h[4:1],,2h[4:1],,3h[4:1],,8h[8:1],1h[4:1],,8,{16}3,4,5,6h[16:5],{8}7h[4:1],,,,
{8}5h[4:1],,6h[4:1],,7h[4:1],,4h[8:1],5h[4:1],,4,{16}5,4,5,4,{8}5h[2:1],4,3,4,
{8}6h[4:1],,8h[4:1],,3h[4:1],,1h[8:1],,{16}7,8,7,8,7,8,7,8,12,,,45,,,78,,
{8}8,7,7,,8,7,7,1,,1,8,7,{16}8,7,6,7,8,,,,
{8}8,7,7,,8,7,7,1,,1,2,3,{16}3,4,5,6,2,,,,
{8}1,2,2,,1,2,2,8,,8,7,6,{16}7,8,1,2,6,,,,
{8}1,2,2,,1,3,2,1,,8,1,2,{16}1,2,3,2,1,,,,
{8}8,7,7,,8,7,7,1,,1,8,7,{16}8,7,6,7,8,,,,
{8}8,7,7,,8,7,7,1,,1,2,3,{16}3,4,5,6,2,,,,
{8}78,7,27,7,57,7,37,7,21,2,72,2,42,2,62,2,
{8}18,78,12,18,23,12,45,34,
{16}8,1,8,1,8,1,8,1,8,1,8,1,8,,27,,
{16}7,8,7,,2,1,2,,6,5,6,,3,4,3,,
{16}4,4,1,,5,5,8,,4,4,8,,48,,51,,
{16}8,1,8,1,8,,1,,5,,78,,4,,12,,
{16}8,1,8,1,8,,1,,45,,78,,12,,36,,
{16}1,8,1,8,1,,8,,4,,21,,5,,87,,
{16}1,8,1,8,1,,8,,54,,21,,87,,63,,
{16}5,4,5,4,5,,4,,8,,65,,1,,43,,
{16}5,4,5,4,5,,4,,18,,65,,43,,27,,
{16}4,5,4,5,4,,5,,12,,78,,6,5,4,3,
{16}7,8,7,,3,4,3,,51,,,84,,,27,,
{4}8h[4:3]/1,1,1,1,
{8}8h[4:1]/1,,1,7h[4:1],1,,8h[8:1]/1,,
{4}5h[4:3]/1,1,1,1,
{8}6h[4:1]/1,,1,8h[4:1],1,,7h[8:1]/1,,
{8}1h[4:1]/8,,8,2h[4:1],8,,1h[8:1]/8,,
{8}4h[4:1]/8,,8,3h[4:1],8,,1h[8:1]/8,,
{4}2h[4:3]/8,8,8,8,
{8}1h[4:1]/8,,8,2h[4:1],8,,3h[8:1]/8,,
{8}4h[2:5]/8,1,8,2,8,1,8,2,7,8,7,1,7,8,7,1,
{8}6,7,6,8,6,7,6,8,{16}5,5,5,,5b,,,5,5,5,5,,5h[4:1],
