&title=Sense
&artist=BilliumMoto & Silentroom
&first=0
&des=JO_Step
&lv_5=14
&lv_6=13+
&inote_5=(180){32},,,,,,,,,,,,,,,2x,3x,4xh[1:1],
{16},,,,,,,,,,,,,,7x,6x^4-8^2[30#16:3],5x,
{4},,,,,,,,,,,{32},,,6x,7x,8h[4:5]x,{4},,,,
{32},,,,,4x,3x,2h[4:6]x,{4},,,,,
{32},,,,,7x,6x,5x,4h[1:1]x,,,,,,,B4,{4},,,C,,
{32}2x<4[31.304347826#23:6],,,B1,B8,,
{8},7xh[8:19],,,,,,,,,2b,,,,,,,,,,,,
{4}1h[4:3],,,3h[4:3],,,5h[4:5],{8}B2/B3,,B1,B8,B7/B6,,,,
{4}7h[4:1],5h[4:1],3h[4:2],{24},,,1,8,7,{4}6h[4:9],,
{16},,,2,3h[4:6],,,,{4},,,,,,,,,
{8}2x,3,4,7,6,5,3x,4,5,6,5,4,
2x,3,4,5,6,5,4x,3x,4,5,6x,5,
4x/2x,3,4,5/7,6,5x,4x/1x,2x,3,4/8,7x,6,
5x/1x,2,3/7,6,5/1,3,4x/8x,6/2,7xh[4:1]/3xh[4:1],,
{4},4x-2[60#12:1],4,{8}4,{16}E8,B7,{4}4x-6[60#12:1],4,{8}4,B1,
{4}8x-2[60#12:1],8,8,8x<6[60#12:1],{8}8,{24}B2,B3,E4,
{4}4x,4x>1[60#12:1],4,{16}4,,B7,B6,{4}5x<8[60#12:1],5,{8}5,B2/B3,
{4}4xz8[60#6:3]*^5s1[60#6:3],4,{8}C,4,{4},,,,,,,,,,,
{24}1x,2x,3x,{16}4xh,5xh,
{8}6xh[8:1],7xh[8:3],,,{16}8xh[16:3],,,,
{24}B1,B2,B3,B4,B5,B6,B7,B8,E1,E2,E3,E4,E5,E6,E7,E8,A1,A2,
3x,4x,5x,6x,7x,8x,1x,2x,3x,4x,5x,6x,7,8,1,2,3,4,5,6,7,8,1,2,
3h,,5h,,7h[24:1],,1h[24:1],,,4h[24:2],,,{4}Ch[4:1],,,
{4}2-5-8-2[60#12:3]/7,,,2/5,6,7,
{8}6V41[60#12:2],,,1-6[51.42857#14:1],,,{4}6/4,3,2,
{8}1-5[135#4:5],,,B2,,,B8,,,B4,,,B6,,,,,,
6,5,8>7[90#8:3],1,4,3,{4}8h[4:1],,7q3q5q1[4:6],8h[4:2],,,
{8}C,,,A7,,,A3,,,,1-4-6-2[4:3],,{4}1h[4:1],,2>7qq1[4:6],
1h[4:3],,,{32},B1,Ch[16:11],,
{8},,,,,B2/E3,B6/E7,{32}B4,E5,,,B8,E1,,,{48}D4/D8,A3,A7,E3,E7,,,,,,,,
{16}2h[4:2]/E6,,,B4,,,C,,8h[8:1],,1h[8:1],,
7h[4:3],,,E7,,,B5,,E5,,B4,,
2-4[60#16:1],,,8-6[60#16:1],,,1-5[60#16:1],,B2,,B8,,
A2,,,A8,,,A1,,8h[8:1],,,,
1-3[60#16:1],,,7-5[60#16:1],,,8-4[60#16:1],,2,,6,,
1,,,7,,,8,,
7xV13[60#6:1],,1xV35[51.42857#7:1],,3xV57[45#8:1],,,5x,,,C,,
7,,1,,{4}3,5,7-4[8:1],E7f,,,
{16}2,,E2,6,,E6,,,,,C,,3,,B3,7,,B7,,,,,4,3,2,,B2,6,,B6,4,,B4,,5,,
{8}2/B6/A6,3/B7/A7,4/B8/A8,5/B1/A1,6/B2/A2,7/B3/A3,8/B4/A4,
1bw5[3.514#114:1],,Ch[16:3],,,
(171){1}6h[64:1],7h[64:1],8h[64:1],1h[64:1],2h[64:1],3h[64:1],
4h[64:1],5h[64:1],6h[64:1],7h[64:1],8h[64:1],(124){1}1h[64:1],
(180){4}8<1>8[4:10]/1,,,,,,{16}E1,B8,C,,B4,,E5,,
{4},,,,2z6>1[4:7]/7s3<8[4:7],,,,,,,,,2h[8:5]/6,7,8,
8h[8:5]/1,1,2,1h[8:5]/8,8,7,7h[8:5]/4,3,4,4h[4:3]/5h[4:3],,,,,,
1h,,,1h,,{4}Chf[4:1],
{16}B2/A2/B3/A3/B6/A6/B7/A7,,1x/8x,,1/8,2/7,3/6,4/5,4/5,,3/6,,
{8}2xh[16:1]/1x,2h[16:1]/1,2h[16:1]/1,2h[16:1]/1,2h[16:1]/1,2h[16:1]/1,
3xh[8:1]/2x,2,3xh[8:1]/4x,4,3xh[8:1]/2x,2,
2xh[16:1]/1x,2h[16:1]/1,2h[16:1]/1,2h[16:1]/1,2h[16:1]/1,2h[16:1]/1,
1xh[8:1]/8x,8,8xh[8:1]/7x,7,1xh[8:1]/8x,8,
8xh[16:1]/7x,8h[16:1]/7,8h[16:1]/7,6xh[16:1]/7x,6h[16:1]/7,6h[16:1]/7,
5xh[16:1]/6x,5h[16:1]/6,5h[16:1]/6,4xh[16:1]/5x,4h[16:1]/5,4h[16:1]/5,
{16}4xh[16:3],,,5,4x,5x,4x,,{8}4h[8:1],5,1xh[16:1]/8x-4[8:1]b,1h[16:1]/8,
1bxh[8:1]/Cf/8bxw4[8:1]b,,{32}8b,B8f,Cf,B4f,,,,,
{16}3x-8[90#16:1]b,4,5,6,7,8,1x,2x,3bx,4x,5x,6x,
{8}7xh[4:3],{32}1x-6[120#12:1]b,2x,3x,,{4},1b,
{8}1xh[4:3],{32}8x-4[120#12:1]b,7x,6x,,{4},8b/Cf,
{8}8xh[4:2],{32}1b<3[120#6:1]b,2bx,3bx,,
{24},,,,,,1b,A8,A7,A6,A5,A4,
{16}8b-4[90#16:1]b,7,6,5,4,3,2x,1x,
{32}8b/5x,Cf,{16}4x,3x,2x,1xhb[8:1],,
{24}8w4[120#12:1]b,7x,6x,1,2x,3x,7,6x,5x,
{64}8b,B8f,Cf,B4f,{16},,,
{24}1w5[90#16:1]b,2x,3x,8,7x,6x,2,3x,4x,7,6x,5x,
{64}1b,B1f,Ch[16:1]f,B6/B5/B4,{16},,,
{24}8bs4[90#48:4],7x,6x,3,2x,1x,
7bz3[24:4]b,6x,5x,2,1x,8x,
E8,B7,C,B3,E4,,
{8}8h[8:3]x,7,7,{16}7,6,5,6,5,4,
{8}3h[8:1]x,2,3h[8:1]x,{16}4,5,6h[8:1]x,7,8,1,
{8}2xh[16:1]/6x,2h[16:1]/6,2h[16:1]/6,{16}6,5,4,3/5h,2/4h,1/3h,
{8}2xh[16:1]/8x,2h[16:1]/8,1xh[16:1]/7x,1h[16:1]/7,2xh[16:1]/8x,2h[16:1]/8,
1xh[16:1]/6x,1h[16:1]/6,1h[16:1]/6,2xh[16:1]/5x,2h[16:1]/5,2h[16:1]/5,
4bxh[16:1]/7bx,4h[16:1]/7,4h[16:1]/7,3bxh[16:1]/8bx,3h[16:1]/8,3h[16:1]/8,
{16}2bh[16:3],,,8b,8bxh[2560:1]/7bx,1bxh[2560:1]/6bx,2bxh[2560:1]/5bx,,
1bz5[90#16:1]b/2bh[2560:1],,6b/5bh[2560:1],,7b/8bh[2560:1],,4b/3bh[2560:1],,
{8}1h/8-4[4:7],,,,1,1,7,7,2,2,6,6,3,3,5,5,
{16}4,5,3,6,{32}2h[16:1],,1x,8x,7x,,3h[16:1],,8x-4[8:1],7x,6x,,1-5[8:1],,,,
{8}8^5[8:1],1^4[8:1],8p4[8:1],1q5[8:1],8^6[8:1]b,1,
{16}8b,,4,5,4,5,4x,,3h[8:1],,5,4,6h[8:1]x,,2,3,4,5,4,5,4,,5,4,5,,4,5,4,5,4x,,
7h[8:1]x,,5,6,5x,,4,5,3,4,3,4,3,,3,,6b,,5,6,5,6,5x,,3,4,3,2,3x,,6,5,6,7,6,5,6,,6,,
{8}6h[48:1]/7h[32:1],7h[48:1]/8h[32:1],8h[48:1]/1h[32:1],
1xh[48:1]/2xh[32:1],2h[48:1]/3h[32:1],3h[48:1]/4h[32:1],
5x-1[72#20:1]b/C,5h[16:1],,Chf[4:1],,5b,
{16}2bh[8:1],,1,2,1,2,1b,,7bh[8:1],,8,7,8b,,1,8,2,7,2,7,2b,,7,2,7b,,6,3,6,3,6b,,6,,3,6,3b,,
4,5,3,6,2b,7,1b-5[8:1]b/3b,,8b/6b,,1bx/7bx-3[240#6:1]b,,
8,7bx/2bx>5[240#6:1]b,,1,2bx/6bx-2[240#6:1]b,,
7,6bx/3bx-8[240#6:1]b,,4,3bx/7bxv4[240#6:1]b,,
6,7bx/1bxq5[240#6:1]b,,2,1bx/7bx-3[240#6:1]b,,
6,7bx/1bx-5[240#3:6],,,{4},,,(165),,,
{8}B2,B3,B4,B5,B6,B7,E2,E3,E4,E5,E6,E7,E8/E2,E3,E4,E6,E7,E8,
{8}E1,,C,,E5,,Ch[4:9],,,E2,,,E8,,,E3,,,E7,,,,,,
1,7,2,6,3,5,{2}4<4-8[82.5#8:19],,,B6/B7/E7,,,B3/B2/E3,,,Ch[4:3],,,
{8}1-5[4:10],,,2,,,3,,,,,,8,,,7,,,6,,,,,,
1-5[4:10],,,B8,,,B2,,,,,,B1,,,B7,,,B3,,
C,B6,B4,Ch[16:1],,,,,,,,,,,E
&inote_6=(180){32},,,,,,,,,,,,,,,2,3,4h[1:1],
{16},,,,,,,,,,,,,,7,6s2[30#16:3],5,
{4},,,,,,,,,,,{32},,,6,7,8h[4:5],{4},,,,
{32},,,,,4,3,2h[4:6],{4},,,,,
{32},,,,,7,6,5,4h[1:1],,,,,,,3,{4},,,,,
{32}2<4[31.304347826#23:6],,,1,8,,
{8},7h[8:19],,,,,,,,,2,,,,,,,,,,,,
{4}1h[4:3],,,3h[4:3],,,5h[4:5],{8}4p6[4:2],,,,,,,,
{4}7h[4:1],5h[4:1],3h[4:2],{24},,,1,8,7,{4}6h[4:9],,
{16},,,2,3h[4:6],,,,{4},,,,,,,,,
{8}2,3,4,7,6,5,3,4,5,6,5,4,
2,3,4,5,6,5,4,3,4,5,6,5,
4/2,3,4,5/7,6,5,4/1,2,3,4/8,7,6,
5/1,2,3/7,6,5/1,3,4/8,6/2,7h[4:1]/3h[4:1],,
{4},4-2[60#12:1],4,{8}4,{16}8,7,{4}4-6[60#12:1],4,{8}4,1,
{4}8-2[60#12:1],8,8,8<6[60#12:1],{8}8,{24}1,2,3,
{4}4,4>1[60#12:1],4,{16}4,,7,6,{4}5<8[60#24:1],5,{8}5,2,
{4}4z8[60#6:3],4,{8}5s1[60#6:2],4,{4},,,,,,,,,,,
{24}1,2,3,{16}4h[128:1],5h[128:1],
{8}6h[8:1],7h[8:3],,,{16}8h[16:3],,,,
{24}1,2,3,4,5,6,7,8,1,2,3,4,5,6,7,8,1,2,
3,4,5,6,7,8,1,2,3,4,5,6,7,8,1,2,3,4,5,6,7,8,1,2,
3h[128:1],,5h[128:1],,7h[24:1],,1h[24:1],,,4h[24:2],,,{4}7h[4:1],,,
{4}2-5[60#12:1]/7,5-8[60#12:1],8-2[60#12:1],2/5,6,7,
{8}6V41[60#12:2],,,1-6[51.42857#14:1],,,{4}6/4,3,2,
{8}1-5[135#4:5],,,2,,,8,,,4,,,6,,,,,,
6,5,8>7[90#8:3],1,4,3,{4}8h[4:1],,7q1[4:6],8h[4:2],,,
{8}1,,,7,,,3,,,,1q2[4:3],,{4}1h[4:1],,2>7[4:3],
{48}7qq1[60#12:3],8,1h[48:34],,,,,,,,,,{4},,{32},2,3h[16:9],,
{8},,,,,3,7,{32}4,5,,,8,1,,,{48}4/8,3,7,2,6,,,,,,,,
{16}2h[4:2]/6,,,4,,,6,,8h[8:1],,1h[8:1],,
7h[4:3],,,6,,,5,,4,,3,,
2-4[60#16:1],,,8-6[60#16:1],,,1-5[60#16:1],,3,,7,,
2,,,8,,,1,,8h[8:1],,,,
1-3[60#16:1],,,7-5[60#16:1],,,8-4[60#16:1],,2,,6,,
1,,,7,,,8,,
7V13[60#6:1],,1V35[51.42857#7:1],,3V57[45#8:1],,,5,,,5,,
7,,1,,{4}3,5,7-4[8:1],4,,,
{16}2,,2,6,,6,,,,,8,,3,,3,7,,7,,,,,4,3,2,,2,6,,6,4,,4,,5,,
{8}43,32,21,18,87,76,65,
1bw5[3.514#114:1],,1h[16:3],,,
(171){1}6h[64:1],7h[64:1],8h[64:1],1h[64:1],2h[64:1],3h[64:1],
4h[64:1],5h[64:1],6h[64:1],7h[64:1],8h[64:1],(124){1}1h[64:1],
(180){4}8<1[4:10]/1s5[4:10],,,,,,{16},,,,,,,,
{4},,,,2>2[4:7]/7v2[4:7],,,,,,,,,2h[8:5]/6,7,8,
8h[8:5]/1,1,2,1h[8:5]/8,8,7,7h[8:5]/4,3,4,4h[4:3]/5h[4:3],,,,,,
1h[128:1],,,1h[128:1],,{4}1h[16:3]/8h[16:3],
{16}2/7,,1/8,,1/8,2/7,3/6,4/5,4/5,,4/5,,
{8}2h[16:1]/1,2h[16:1]/1,2h[16:1]/1,2h[16:1]/1,2h[16:1]/1,2h[16:1]/1,
3h[8:1]/2,2,3h[8:1]/4,4,3h[8:1]/2,2,
2h[16:1]/1,2h[16:1]/1,2h[16:1]/1,2h[16:1]/1,2h[16:1]/1,2h[16:1]/1,
1h[8:1]/8,8,8h[8:1]/7,7,1h[8:1]/8,8,
8h[16:1]/7,8h[16:1]/7,8h[16:1]/7,6h[16:1]/7,6h[16:1]/7,6h[16:1]/7,
5h[16:1]/6,5h[16:1]/6,5h[16:1]/6,4h[16:1]/5,4h[16:1]/5,4h[16:1]/5,
{16}4h[16:3],,,5,4,5,4,,{8}4h[8:1],5,1h[16:1]/8-4[8:1],1h[16:1]/8,
1h[8:1]/8bw4[8:1],,{32}8b,,,,,,,,
{16}3-8[90#16:1],4,5,6,7,8,1,2,3b,4,5,6,
{8}7h[4:3],{32}1-6[120#12:1],2,3,,{4},1b,
{8}1h[4:3],{32}8-4[120#12:1],7,6,,{4},8b,
{8}8h[4:2],{32}1b<3[120#6:1],2,3,,
{24},,,,,,1b,,,,,,
{16}8-4[90#16:1],7,6,5,4,3,2,1,
{32}8b/5,,{16}4,3,2,1h[8:1],,
{24}8w4[120#12:1],7,6,1,2,3,7,6,5,
{64}8b,,,,{16},,,
{24}1w5[90#16:1],2,3,8,7,6,2,3,4,7,6,5,
{64}1b,,,,{16},,,
{16}3s7[90#48:5],4,5,6,
2bz6[24:5],3,4,5,{4},
{8}8h[8:3],7,7,{16}7,6,5,6,5,4,
{8}3h[8:1],2,3h[8:1],{16}4,5,6h[8:1],7,8,1,
{8}2h[16:1]/6,2h[16:1]/6,2h[16:1]/6,{16}6,5,4,3/5h[128:1],2/4h[128:1],1/3h[128:1],
{8}2h[16:1]/8,2h[16:1]/8,1h[16:1]/7,1h[16:1]/7,2h[16:1]/8,2h[16:1]/8,
1h[16:1]/6,1h[16:1]/6,1h[16:1]/6,2h[16:1]/5,2h[16:1]/5,2h[16:1]/5,
4h[16:1]/7b,4h[16:1]/7,4h[16:1]/7,3h[16:1]/8b,3h[16:1]/8,3h[16:1]/8,
{16}2h[16:3],,,8b,8h/7,1h/6,2h/5,,1z5[90#16:1]/2h[128:1],,6/5h[128:1],,7/8h[128:1],,4/3h[128:1],,
{8}1h/8-4[4:7],,,,1,1,7,7,2,2,6,6,3,3,5,5,
{16}4,5,3,6,{32}2h[8:1],,1,8,7,,3h[8:1],,8-4[8:1],7,6,,1-5[8:1],,,,
{8}8^5[8:1],1^4[8:1],8p4[8:1],1q5[8:1],8^6[8:1],1,
{16}8b,,4,5,4,5,4,,3h[8:1],,5,4,6h[8:1],,2,3,4,5,4,5,4,,5,4,5,,4,5,4,5,4,,
7h[8:1],,5,6,5,,4,5,3,4,3,4,3,,3,,6,,5,6,5,6,5,,3,4,3,2,3,,6,5,6,7,6,5,6,,6,,
{8}6h[48:1]/7h[32:1],7h[48:1]/8h[32:1],8h[48:1]/1h[32:1],
1h[48:1]/2h[32:1],2h[48:1]/3h[32:1],3h[48:1]/4h[32:1],
5-1[72#20:1]/1,5h[16:1],,1h[4:1],,5b,
{16}2h[8:1],,1,2,1,2,1,,7h[8:1],,8,7,8,,1,8,2,7,2,7,2,,7,2,7,,6,3,6,3,6,,6,,3,6,3,,
4,5,3,6,2,7,1-5[8:1]/3,,8/6,,1/7-3[240#6:1],,
8,7/2>5[240#6:1],,1,2/6-2[240#6:1],,
7,6/3-8[240#6:1],,4,3/7p3[240#6:1],,
6,7/1q5[240#6:1],,2,1/7-3[240#6:1],,
6,7/1-5[240#3:6],,,{4},,,(165),,,
{8}2,3,4,5,6,7,2,3,4,5,6,7,8/2,3,4,6,7,8,
{8}1,,7,,3,,5h[4:9],,,2,,,8,,,3,,,7,,,,,,
1,7,2,6,3,5,{2}4-8[82.5#8:19],,,6,,,2,,,4h[4:3],,,
{8}1-5[4:10],,,2,,,3,,,,,,8,,,7,,,6,,,,,,
1-5[4:11],,,8,,,2,,,,,,1,,,7,,,3,,
1,6,4,1,,,,,,,,,,,
