&title=ray
&artist=かぐや(cv.夏吉ゆうこ)/月見ヤチヨ(cv.早見沙織)
&first=-0.04
&des=Zqu3ra
&des_5=
&lv_5=13+
&inote_5=(132){4},,,,1xh[8:1],
5h[8:1],2h[8:1],6h[8:1],
1xh[8:1],5h[8:1],2h[8:1],6h[8:1],
1xs5[4:3],7xh[8:1],3xh[8:1],1x,
{8},E8,E3,E6,,E4,E7,1b,
4/3,6,5/7,8,2,2h[8:1],4,4h[8:1],
5,6/4,3,4/2,1-4[8:1],1,5-8[8:1],5,
2,2h[8:1],4,4h[8:1],5,5h[8:1],7,7h[8:1],
1,4/2,6,8/4,2h[8:1],{16}4,3,6,5,{8}7,
5/6,3,4/2,1,7,7h[8:1],5,5h[8:1],
4,3/5,6,5/7,8-5[8:1],8,4-1[8:1],4,
7,7h[8:1],5,5h[8:1],4,4h[8:1],2,2h[8:1],
4qq1b[8:5]*pp7b[8:5],6x/2x,{4}4bx,,,2>5[16:3],
8,7p3[16:3],1,
2>5[16:3],{8}8,8,{4}7p3[8:1],2,
1>4[16:3],5<8[16:3],2>5[16:3],6<1[16:3],
3<6[16:3],2-7[16:3],3hx[8:1],{8}3x,4x,
{4}7/5x>2[8:1],{8}6,5,{4}4<7[8:1],{8}3,4,
5xh[8:1],8xh[8:1],4xh[8:1],6xh[8:1],{4}2x-6[8:1],5,
7<4[16:3],1,2q6[16:3],7,
{8}8,{16}7,5,{8}6,7h[4:1]/3pp2[8:3],,,,,{4}7b<4[16:3],
1,{8}2q6[16:3],2,{4}8,
7<4[16:3],{8}1,1,{4}2q6[16:3],{8}7,8<5[8:1],
,2,1,8>3[8:1],,6,6,6,
7/3h[8:1],4,2/6h[8:1],5,{16}3,4,{8}2,8/1,7/2,
{4}3>8[16:3],{8}5,5,6qq7[4:1],6,2,2,
{4}1-6[8:1],1V74[4:1]/6V84[4:1],{8},,,,2,
2h[8:1],4,4h[8:1],5,5h[8:1],7,1b,
{16}2,4,{8}3,6/5,1b,{16}2,4,{8}3,{4}6b/2b<3pp2[4:7],
{1}B5/B4/E5f,
{32}E1,B1,{4},,,{16},,,{32}B5,
E5,{4},,,{16},,,{32}E1,
B1,{4},,{16},,,{4}2b/6b,
4/3,5/4,2/4,6/4,
1/4,4/7,2/6,8/4,
{8}3-5[8:1],3,7-3[8:1],7,2-6[8:1],2,8,8,
7bx/1bx,2bx-5[8:1]/6bx-1[8:1],8bx/4bx,2bx/6bx,{32},,,,E5,C,{16}E1f/B8/B7/B1/B2,,,{8}4x,
6bx/2bx>4[8:1],1,2/5p1[8:1],6,{4}7/5<3[16:3],{8}5/2,3,
4-7[8:1],3,{4}4/2-5[8:1]*-6[8:1],2b,{8}7,4/3,
2-5[8:1],1,6-3[8:1],7,2-5[8:1],1,7-4[8:1],8,
3-6[8:1],2,{4}7p3[8:1]*-4[8:1],7b,{8}2,6,
/1>4[8:1],5,1/5p8[8:1],6,{4}5x/7<3[16:3],{8}7,2,
2,4<7[8:1],1>4[8:1],4qq5b[4:1],{4}1,{8}8,7,
6,5/6,3,4/2,6,8h[8:1]/4pp5[4:1],,E1f/4?pp3b[4:1],
,E1f/4?pp2[64:15]*pp2[64:15],,E1f,,8bx,8bx,4x,
3bx/7bx<5[8:1],8,7/4q8[8:1],3,{4}2/4>6[16:3],{8}4/7,6,
5>2[8:1],6,{4}5/7-4[8:1]*-3[8:1],7b,{8}2,5/6,
7-4[8:1],8,3-6[8:1],2,7-4[8:1],8,3-8[8:1],2,
5-2[8:1],6,{4}8p3[8:1]*p4[8:1],8b,{8}7,3,
8<5[8:1],4,8/4q1[8:1],3,{4}4x/2>6[16:3],{8}2,7,
7,5>2[8:1],8<5[8:1],5qq6b[4:1],{4}8,{8}1,1,
3,4/3,6,7/5>7[16:3],,6/5pp4b[4:1],6,E2/B2/A2,
,3x,{16}E3,B2,B1,E1,E7,B6,B5,E5,{8}1hbx[8:1],,
4/1>4[8:1],5,1/5p8[8:1],6,{4}5x/7<3[16:3],{8}7,2,
2,4<7[8:1],1>4[8:1],4qq5b[4:1],{4}1,{8}8,7,
6,5/6,3,4/2,6,8/4,2-5[8:1]/6-1[8:1],4/8,
{4}2bx/6bx,E7/E3/Cf,{8},2h[8:1],6h[8:1],4h[4:1],
,5-8[2:1],{4}4-1b[8:3],{16},,,,,,,,2bx,
7,4,5,1bx,7,3,5,2bx,7,4,5,{32}1b,2,3,4,5,6,7,8,
{8}1/5,3,6/5,8,2/4,3,6/5,8,
2-5[8:1],2,6-1[8:1],6,2,2h[8:1],6,6,
1/5,3,6/5,8,2/4,3,6/5,8,
2,4/2,6,8/4,2h[8:1],{16}4,3,6,5,{8}7,
1,{16}2,4,{8}3,6/5,8,{16}7,5,{8}6,4/3,
1,{16}2,4,{8}3,6/5,7-4[8:1],{16}6,4,{8}7,1,
1,{16}2,6,{8}4,3/7,8,{16}7,3,{8}5,2/6,
3-5[8:1]/4-6[8:1],2,{4}4bx/3bx,{8}7/3,{16}4,6,5-1[8:1]*-1[8:1],8,4,6,
{64}5bqq5[2:7],5?pp5b[64:223],
E
