&title=Caffeine Fighter
&artist=Syaro (CV.Uchida Maaya)
&first=2.3
&des=DenWog10
&lv_4=9
&lv_5=13
&inote_4=(156)
{4}1,56,8,34,4pp5[4:1]*qq3[4:1],,,{8}8,8,{4}24,{8}1,1,{4}57,12,34,56,78,
1h[2:1]b,{8}3,3,{4}3h[2:1],{8}5,5,{4}5h[2:1],{8}7,7,{4}7h[4:1],8,1b/8b,
{8}1,2,12,,5,6,56,{4}1hx[4:1]/8hx[4:1],{8},1x/2x,38,{4}47,5b/6b,
{4}1,45,2,56,8,45,7,34,1h[4:1],8,5h[4:1],4,78,57,34,24,1b/8b,
7h[4:1],5,4h[4:1],2,18,67,45,23,18,
{8}2b/7b,27,36,3h[4:1]/6h[4:1],,,4x,3x,{4}12,18,
7^4[2:1],1,2,2,3^8[2:1],5,6,6,7q4[2:1],1,2,2,3q8[2:1],5,6,6,
1v4[2:1],7,6,6,5v8[2:1],2,3,3,4v7[2:1],1,1,2,3p6[4:1],,{8}2x,1x,{4}2b/8b,
{8}12,3,45,,56,7,18,,2pp4[4:1],8,7,6,,34,25,,
{8}7b/8b,6,45,,34,2,18,,7qq5[4:1],1,2,3,,56,47,,
{4}2^5[4:1],{8}7,7,6,,{4}6^1[4:1],{8}2,2,3,,{4}45,18,
{8}2,3,4,5,6,7,8,1,{4}2>8[4:1],,,12,
{2}5h[2:1]/6,6q2[2:1],,{4}8,78,{2}3/4h[2:1],3p7[2:1],,
{4}1,13,{2}4/5h[1:1],B1,{4}B3,4h[1:1],B8,,B6,,{2}C,C,{4}18,45,
8h[4:3],1,2,3,4h[4:3],5,6,7,{4}17,2h[2:1],3,4,5h[2:1],6,7,78,
{8}16,16,78,,38,38,12,,{4}3h[4:1],5,6h[4:1],4,
{8}12,3,34,,78,6,56,,{4}1h[4:1],3,8h[4:1],6,
3qq2[2:1]/6pp7[2:1],{2},{4},{8}45,45,36,2b/7b,{2},
{4}1-5[2:1],2,3,4,6-1[2:1],4,3,2,18,
{8}2,34,5,6,{4}7v5[8:1]/8,1,2v4[8:1],,6b,
1h[8:1],{8}8,8,34,,5,5,{4}12,3^8[8:1]/7^4[8:1],,7x,3b/4b,
{8}5,6,7,8,1,2,{2}3<7[4:1]*>7[4:1],{4},7b,{8}15,15,2qq5[4:1],,7,7,6,,45,,
{2}1-5[8:1]/2-6[8:1],8-4[8:1]/7-3[8:1],
{4}7pp4[4:1],{8}2,2,3,,45,,{2}6-2[8:1]/5-1[8:1],3-7[8:1]/4-8[8:1],
{8}1x/8x,2,34,5,67,8,1x/8x,{2}1qq6[2:1]/2pp5[2:1],{8},
{4},{8}5,4,3,2,1,8,7,6,{2}5>5[2:1]b,,{4}3b,
{8}12,12,38,,56,56,47,,{4}8pp3[4:1]/7qq4[4:1],,,
{8}3x/4x,2x/4x,1x/4x,,5x/6x,5x/7x,5x/8x,,{2}8qq5[2:1]/1pp4[2:1],,
{8}12,2,24,2h[8:1]/4h[8:1],,4x/5x,6,56,7,78,{4}1hx[4:1]/2hx[4:1],{8},7hx[4:1]/8hx[4:1],,,
1,2,3,4,5,6,7,8,{2}1w5[2:1],,
{8}46,37,37,,{8}1h[8:1]/2h[8:1],,3h[8:1]/8h[8:1],,4h[8:1]/7h[8:1],,{2}6pp7[4:1]/5qq4[4:1],
{4},{8}5x/6x,5hx[8:1]/6hx[8:1],,4hx[8:1]/7hx[8:1],,3hx[8:1]/8hx[8:1],,1x/2x,{4}1qq7[4:1]/2pp4[4:1],,,38,
{8}1,2,34,56,7,8,12,34,{4}5hx[8:1]/6hx[8:1],4hx[8:1]/7hx[8:1],5hx[8:1]/6hx[8:1],1bx,
{8}24,3,35,,57,6,46,,45,4b/5b,,18,18,18,18,,2b/7b,,
{4}1,5h[4:1],6,8,4h[4:1],3,18,45,
{8}1,1,5h[4:1],,6,,8,8,4h[4:1],,3,,{4}12,78,45,
{8}4,4h[8:1],3h[4:1],,1,5,5h[8:1],6,6h[8:1],,8,,{4}18,34,56,{8}27,27,18,,36,36,45,,
{4}1b/2b,5b/6b,
{8}1,2,3,45,8,7,{2}6<4[1:1],{4},,,Chf[1:4],
&inote_5=(156)
{8}1V35[4:1],,7,7,6pp1[4:1],,3,3,4^2[4:1]*^6[4:1],,,,,
8x,8x,17,{4}2h[8:1]/6h[8:1],2h[8:1]/6h[8:1],3h[8:1]/5h[8:1],3h[8:1]/5h[8:1],4pp4[4:1]*qq4[4:1],,{8},1,1,1,7-4[8:1],8,7,2-5[8:1],1,2,4V68[4:1],,1,2,3,4x/5x,,
{8}8-4[8:1],1,18,1-5[8:1],8,18,6-2[8:1],6,56,3-7[8:1],3,34,,1x/8x,2x/7x,3x/6x,{4}4hx[4:1]/5hx[4:1],{8},
{8}1^7[8:1],2,1-6[8:1],2,1-5[8:1],2,1b,,
{8}3V57[4:1],,2,1,8,7h[4:1]/8h[4:1],,,
{8}8^2[8:1],7,8-3[8:1],7,8-4[8:1],7,8b,,
7-3[8:1],1,2-6[8:1],8,7v4[8:1],1,2v5[8:1],8,2b,,
5qq2[4:1],,7,7,8,18,2,24,5,57,8-4[8:1],,4b/8b,,{4}24,67,{8}18,27,36,45,,{8}4-1[8:1]/5-8[8:1],4b/5b,,,2hx[8:1]/7hx[8:1],
{4},{8}1,1,1/C,2,3,4,56,47,56,4h[8:1]/7h[8:1],,3h[8:1]/8h[8:1],,12,1b/2b,12,
8,8,8/C,7,6,5,34,25,34,2h[8:1]/5h[8:1],,1h[8:1]/6h[8:1],,78,7b/8b,78,
1-4[4:1],7,7,6,5,4V28[4:1],5,5,6,8^3[4:1],7,7,8,8,
34,45,56,{4}1h[8:1]/7h[8:1],2h[8:1]/8h[8:1],1h[8:1]/7h[8:1],{8}8<4[2:1]*>4[2:1],{2}8b,{16},,,4x,4x,,35,,{8}26,
,1<5[4:1],,5V71[4:1],,{8}2,3,4h[2:1],,6,6,8,E8/E2,E7/E3,E4/E6,{16},4x,4x,,
{8}1>5[4:1],,5V31[4:1],,{8}7,6,5h[2:1],,4,4,1,E1/E8/E2,E7/Cf/E3,E4/E6/E5,4b/5b,,
{4}7^4[8:1]*-3[8:1],7,{8}1,1,2q6[8:1]*^5[8:1],,2,,{8}8b,8b,7,68,6,57,5,46,4,35,3,24,{4}1-5[8:1],1b/5b,{8}
{16}6,6,,4,4,,5,,{8}4p7[4:1],,7>3[2:1],,,,6,6,5,,4x,3-8[8:1]/4,,3,7-4[8:1],,7,
2-4[8:1],2,5-7[8:1],,,8-4[8:1],,48,,{16}3,3,,5,5,,{8}4x,4x,4x,
{4}5V71[4:1],1V35[4:1],5V71[4:1],,2-5[8:1],12,7-4[8:1],78,3qq4[4:1]/5pp4[4:1],,
{8},3,3,24,,{16}6,6,,4,4,,{8}5-8[8:1]*-2[8:1],,5,,
{4}1h[1:1],E8,E7,E6,4h[1:1],,E3,E2,8h[1:1],{8}E2,E3,,E6,E7,,{2}1^6[4:1]*^4[4:1],{8},,
5,5,{4}4h[8:1]/6h[8:1],2h[8:1]/8h[8:1],1^4[8:1]/7^4[8:1],17,
{4}1-5[8:1],15,7-3[8:1]*^4[8:1],7,
{8}1,1,2b/8b,3,4,5,6pp7[4:1],,3,3,4qq3[4:1],,8,8,8-4[8:1],,1b/8b,,
3,34,4,45,5,56,6,7-4[8:1]/8-3[8:1],16,78,,,
34,34,25,,8V64[4:1],,4<8[4:1],,3h[4:1],,,7-4[8:1],3-8[8:1],7,3,,
78,78,16,,1V35[4:1],,5>1[4:1],,6h[4:1],,,3v8[8:1],7v4[8:1],3,7,,3b/4b,,
18,18,2-6[8:1],8-4[8:1],2,8,7-3[8:1],,37,,12,13,4-7[8:1]*-8[8:1],,,,
{4}2hx[8:1],1h[8:1]/3h[8:1],6h[8:1],5h[8:1]/7h[8:1],{8}2pp3[8:1]b/7qq6[8:1]b,,,
{8},4-1[8:1]/5-8[8:1],45,,,
27,27,36,{4}3hx[8:1]/6hx[8:1],2hx[8:1]/7hx[8:1],1x/8x,
2^4[8:1]/7^5[8:1],27,3-8[8:1]/6-1[8:1],,{8},1,28,8,17,1-4[8:1],7-4[8:1],1,7,{4}4qq8[4:1]*pp8[4:1],,,
{8}78,68,{4}5-1[8:1]*-2[8:1],5,4p8[8:1]*q8[8:1],4,8^6[8:1]*^2[8:1],8w4[8:1],8b,
{8}3h[8:1],7h[8:1],2h[8:1],6h[8:1],1h[8:1],5h[8:1],{16},,4x,4x,,8x,8x,,
{8}1,28,37,5,46,{16}2x,2x,,8x,8x,,
{8}1-3[8:1],5,1-7[8:1],5,1-3[8:1],5,1,,8-4[8:1]/7-5[8:1],,8-5[8:1]/7-5[8:1],,{4},
{8}8-6[8:1],4,8-2[8:1],4,8-6[8:1],4,8,,1-5[8:1]/2-4[8:1],,1-4[8:1]/2-4[8:1],,2-6[8:1],,2b/6b,,
{8}78,56,34,8-4[8:1],7^5[8:1],8,7,1-5[8:1],2^4[8:1],1,2,5-8[8:1],4-1[8:1],5,4,,
12,12,7,6,5,4,3,2,{2}1w5[2:1],{4},{16},4,4,,6,6,,,
{8}1,34,8,56,2,56,8,34,1h[8:1]/B6/E6/E7,,34,8h[8:1]/E5/B4/E4,,18,1b/8b,18,
8^6[8:1],4,8^2[8:1],4,8^6[8:1],4,8,,1^6[8:1],B2/E3/B3,1^4[8:1],E7/B7/B6,1^6[8:1],B2/E3/B3,1,
,5-3[8:1],6-2[8:1],5,6,1-7[8:1],2-6[8:1],1,2,
{4}7-3[8:1],37,6-2[8:1],26,
{8}8,8,17,4,4,3qq3[4:1]/4pp4[4:1],,,,{16},2,2,,{8}3,4,,{4}5b/6b,
1,3,4h[2:1],7,8h[2:1],{8}1,1,,,{2}3-8[8:1]/4-7[8:1],5-2[8:1]/6-1[8:1],{4}8bx,
{8}1,1,28,,5,5,46,,{4}2^5[4:1]/7,5V31[4:1],8h[4:1],,7^4[4:1]/2,4V68[4:1],1h[4:1],,
4b/5b,45,{8}36,36,27,2hx[8:1]/7hx[8:1],,18,1b/8b,,{4}2b,2b,
{8}3-8[8:1],4,3,6-1[8:1]/Cf,5,6,8<8[1:4]*>8[1:4]/Cf,
