&title=Incyde
&artist=YbeLL
&first=0.03
&des=CrystaLLia wIth LunaFOTO「再瞬」
&lv_5=14+
&des_5=CrystaLLia wIth LunaFOTO「再瞬」
&inote_5=
(180){4},{1},,,,,,,{8},6h[4:1],
,,{4}6h[4:1],
{8},5h[4:1],,,{4}5h[4:1],4,
{8}3xh[4:1],,,3xh[4:1],,,{4}4xh[4:1],
{8},4xh[4:1],,,{4}5h[4:1],6,
{8}8`7h[4:1],,,7h[4:1]`6,,,{4}5`7h[4:1],
{8},4`6h[4:1],,,{4}5`3,C,
{16}7b/1,,,5,{8}6,4,{16}5h[8:1]/3h[8:1],,,6h[8:1]/4h[8:1],,,{8}7/5,
{16}1h[8:1]/2h[8:1],,,8h[8:1]/3h[8:1],,,{8}7/4,{16}B2,B2,B2,B2,{32}E6,E5,E4,E3,E2,E1,E8,E7,
{4}6x-8-2[8:5],5,4,5,
3-1-5[8:5],8,7,6,
7h[4:1],{8}5,5h[4:1],,8,{4}8h[4:3],
E3,E4,E5,6,
5/4h[4:1],{8}6,7h[4:1],,1,{4}2h[4:1],
{16}A7,E7,E6,A5,A3,E4,E5,A5,A8,A7,A6,A5,{4}1,
4/3h[4:1],{8}5,6h[8:3],,5,{4}4h[4:1],
{16}A8,E8,E7,A6,A2,E3,E4,A4,E1,E8,E7,E6,{4}C,
2-4-6[8:5],8,7,8,
1-5-7[8:5],5,4,3,
2h[4:1],{8}4,4h[4:1],,1,{4}1h[4:3],
E8,E7,E6,4,
{8}7,7,5,5,6,6,4,4,
{16}5,3,5,3,4,2,4,2,8,1,7,2,{32}E8,E7h[32:0],E6,E5h[32:0],E4,E3h[32:0],E2,E1h[32:0],
{1}Ch[1:1],
{8}8h[2:1],,,1,1,{16}7,4,6,5,{8}7b,
{4}E3f/B2/E2,{8}7/1,{16}6,6,{32}2,3,{16}4h[8:1],{32},,8,7,{8}6h[8:1],C,
{16}3,5,4,5,3<1[4:1],3,{32},,,,E4,E5,E6,E7,E8,E1,E2,E3,{4}C,
{32}6,5,{16}4h[8:1],{32},,1,2,{8}3h[8:1],C,{16}8<6[16:1],4>2[16:1],6>4b[16:1],2<8b[16:1],,,,,B7,
B3,B6,B2,B5,B1,E5,E1,{32}A5,A6,A7,A8,A1,A2,A3,A4,{4}C,
{8}7/5,5/7h[8:1],{16}4,6,4,6,{32}1,2,{16}3h[8:1],{32},,4,5,{8}6h[8:1],C,
{16}8,8,8,8,8,8,8,8,{32}8bx,1,2,3,4,5,6,7,{4}8/C,
{16}3>8[8:1],,,4,{8}3,7,{16}5,,,4,{8}6,{16}3,5,
{8}3,6/4,6/5,7,{16}1,8,1s5[8:1],8,2,8,{8}1,
{4}E7f/B7/E8,{8}2/8,{16}3,3,{32}7,6,{16}5h[8:1],{32},,1,2,{8}3h[8:1],C,
{16}6,4,5,4,6>8[4:1],6,{32},,,,E6,E5,E4,E3,E2,E1,E8,E7,{4}C,
{32}3,4,{16}5h[8:1],{32},,8,7,{8}6h[8:1],C,{16}1>3[16:1],5<7[16:1],3<5b[16:1],7>1b[16:1],,,,,B2,
B6,B3,B7,B4,B8,E5,E1,{32}A4,A3,A2,A1,A8,A7,A6,A5,{4}C,
{8}2/4,4/2h[8:1],{16}5,3,5,3,{32}8,7,{16}6h[8:1],{32},,5,4,{8}3h[8:1],C,
{16}1,1,1,1,1,1,1,1,{32}1bx,8,7,6,5,4,3,2,{4}1/C,
6,6,{16}5/7,,,6/4,,,{8}5h[8:1]/3h[8:1],
{16},,6,4,7,3,8,2,1,3,8,4,7,5,{8}6,
{1}Cf,
,,,{8}E6h[8:3],
,,E7h[8:3],,,{4}A6h[8:3],
{8},D6h[8:3],,,{4}A1h[4:1],E2h[4:1],
{8}E6h[8:3],,,E7h[8:3],,,{4}A6h[8:3],
{8},D6h[8:3],,,{2}C,
{4}3`5,4,{8}6,6h[4:1],,5,
,7/4>7[16:7],,6,,5h[8:3],,,{4}3,
{8}6/4,7h[4:1],,5h[4:1],,3h[4:1],
,1,,1h[8:3],,,{4}C,
{8}8b/7b,{16}6,5,{8}6,{16}6,4,{8}6,{16}6,3,{8}6,{16}6,2,
{8}6,{16}6,1,{8}6,{16}6,8,{8}6,{16}6,7,{8}6,{16}4,5,
2,1,3,4,8,7,5,6,3,3,5,4,6,6,1,8,
{24}2x,3,4,8x,7,6,1x,2,3,7x,6,5,1,2,3,4,5,6,7,8,1,2,3,4,
{4}7/5-1-4-2[8:5],8,6,5,
4<8-6-1[8:5],3,2,4,
3h[4:1],{8}5,5h[4:1],,8,,1/6,
,7/2,,8h[8:3]/3h[8:3],,,,,6/4,
6h[8:1]/4h[8:1],,5/3,{4}5h[8:1]/3h[8:1],{8}7/8,8h[8:1]/7h[8:1],
,1/2,{4}2h[8:1]/1h[8:1],7/4,{8}6/5,4h[4:1],
,8,,2,{24}7,6,5,3,2,1,6,5,4,2,1,8,
E7,E6,E5,E3,E2,E1,A6,A5,A4,A2,A1,A8,{2}Ch[4:1],
{4}6/5-2[32:3],7,1/4-8[8:1],2,
7/5>2[8:1],6,5/1h[4:1],4,
7/8,{8}6,6h[4:1],,4h[4:1],,1,
,3/8,,7h[8:3]/2h[8:3],,,,,6/5,
6h[8:1]/5h[8:1],,4/3,{4}4h[8:1]/3h[8:1],{8}7/1,7h[8:1]/1h[8:1],
,8/2,{4}8h[8:1]/2h[8:1],{16}6,5,{8}4,{4}6,
{8}7/4,6,5,3,4,6,{16}1,2,3,4,
8,7,6,5,3,4,3,5,4,6,5,7,4,8,3,1,
{4}C,{8}6,6pp4[16:7],,5,,3,
2-8-3[4:1],,,5<8[16:3],,5>2[16:3],,,{4}C,
{8}7,1>4[16:3],,5,,7,
{4}8<5qq1[16:9],{8}2,2,,B3/B4/E4,,,{4}C,
{8}7h,5h,3h,7h,5h,3h,
4h,2h,6h,4h,2h,6h,4h,2h,
{12}5,3,1,5,3,1,6,4,2,7,5,3,
{16}8h[8:1],,,5h[8:1]/3h[8:1],,,{8}7/1,6/4,{16}3,5,3,5,{8}3,
{4}6<1-5[16:7],5,4,3,
3-1-7-4[16:7],7,6,5,
6h[4:1],{8}4,4,,5/3,{16}6,4,{8}6,
{4}5>2[8:1],5<8[8:1],5-1[8:1],5,
{8}8b/7b,{16}6,5,{8}6,1/2,{16}3,4,{8}3,7/5,{16}6,4,
{8}5,3/5,{16}4,6,{8}5,{24}8,7,6,5,4,3,8,7,6,5,4,3,
{8}2/8,{16}7,5,{8}6,4/2,{16}3,5,{8}4,7,6/5,
5/4,4/3,{16}5,4,6,3,7,2,8,1,{4}Cfh[4:1],
{16},,,,,,,,2x,5,4,5,3,5,4,5,
4,5,4,5,4,5,4,5,6x,4,5,4,5,4,5,4,
7x,5,4,5,4h,5,3h,5,2h,5,4h,5,3h,5,2h,5,
4h,5,3h,5,2h,5,1h,5,8,1,2,3,7,6,5,4,
{8}2,{16}3,5,{8}4,{16}7,5,{8}6,{16}3,5,{8}4,{16}7,5,
{8}6,{16}2,4,{8}3,{16}6,4,{2}5-1[8:1]*-2[8:1],
{8}7/8,{16}6,5,{8}6,{16}4,5,{8}4,{16}6,5,{8}7,{16}5,6,
{8}4,{16}7,5,{8}7,{16}4,6,{2}4-7[8:1]*-8[8:1],
{4}2h[4:1],{8}4,5,{4}6h[4:1],{8}3,4,
{4}5h[4:1],{8}2,3,6,4,5,7,
6/4,5,3,4,2,5,4,2,
6,5,2,1,{16}A7h[16:0],E7,E6,A5,A3h[16:0],E4,E5,A5,
{8}8,8,8,8,2,2,2,2,
{16}6,4,6,4,5,3,5,3,4,2,4,2,{32}4,3,2,1,8,7,6,5,
{1}4h[8:11]/B7h[1:1]/E8h[1:1]/B8h[1:1],
{8},,,1,5/1,{16}7,8,7,8,{8}7,
5b/6b,{16}3,3,{8}5,8/2,{16}7,7,{8}5,{16}6,4,6,4,
5,5,3,3/4,,,6,4,{32}A5,A4,A3,A2,A1,A8,A7,A6,E6,E5,E4,E3,E2,E1,E8,E7,
{16}4,4,6,6,{8}5,{16}7,7,1,1,{8}8,{16}3,3,5,5,
4,6/4,{8}6,{16}3,3,5,5,{32}A4,A5,A6,A7,A8,A1,A2,A3,E4,E5,E6,E7,E8,E1,E2,E3,
{16}5,5,4,6,{8}4,{16}7,7,2,8,{8}1,{16}3,5,4,5,
{32}3,E3,E2,A1,E1,E8,A7,E7,E6,A5,E5,E4,A3/B5,B6,B7,B8,B1,B2,B3,B4,{16}A2,A8,A4,A6,{8}C,
{1}8h[1:2],
1>7b[4:3],
{4},6/1,5/3,7/4,
6/2,5/1,4/3,{8}7/8,7,
{4}6/5,1/2,7/4,6/3,
5/2,7/1,{8}5/3,3,{4}8/2,
6/4,6/B1/B2,6,6/B3/E4,
4,4/E8/A7,4,4/A6/E6,
{16}A8,E8,E7,A6,A2,E3,E4,A4,{24}B8,B7,B6,B2,B3,B4,D8/E8,A7/E7,A6,D3/E3,E4/A3,A4,
{16}8,1,8,1,{24}8,1,8,1,8,1,{16}7,5,6,4,{4}6h[4:1],
5>8[8:3],7,6,5,
4-6-8-2[8:3],3,4,5,
4h[4:1],{8}6,6v1[8:1],,2,{4}2-5[32:3],
7-4[8:1],{8}3,3>8[16:3],,6,{4}5,
4/5,{16}2h,3h,4,5,3h,4h,5,6,4h,5h,6,7,
{8}4,5,{16}2h,3h,4,5,3h,4h,5,6,4h,5h,6,7,
{24}1h,2h,3h,4,5,6,2h,3h,4h,5,6,7,3h,2h,1h,8,7,6,2h,1h,8h,7,6,5,
{32}E1,E2,E3,E4,E5,E6,E7,E8,E1,E2,E3,E4,E5,E6,E7,E8,A8,A7,A6,A5,A4,A3,A2,A1,A8,A7,A6,A5,A4,A3,A2,A1,
{16}8x,,,3,{8}5,4,{16}1h[8:1]/7h[8:1],,,2h[8:1]/8h[8:1],,,{8}3/1,
{16}5h[8:1]/6h[8:1],,,4h[8:1]/7h[8:1],,,{8}3/8,{16}6,4,5,3,6,4,{8}C,
{16}2b/8,,,4,{8}3,5,{16}4h[8:1]/6h[8:1],,,3h[8:1]/5h[8:1],,,{8}2/4,
{16}8h[8:1]/7h[8:1],,,1h[8:1]/6h[8:1],,,{8}2/5,{16}3,5,4,6,3,5,{8}C,
7b/8b,{24}6,5,6,{8}5,1b/2b,{24}3,4,3,4,,,{8}7b/1b,{24}6,4,5,
{8}3,8b/2b,{24}3,5,4,6,{48},,,,{16}8,7,6,5,{4}1b,
{24}7/B2/E2,6,5,4/B3/E4,3,2,1,8,7,6/E8/B7,5,4,3/B6/E6,2,1,8,7,6,5/E6/B5,4,3,2/B4/E4,1,8,
7,6,5,4/E8/B8,3,2,1/B1/E2,8,7,{96}6/5,,,4,,,{32}3,2,1,8,7,6,5,4/8,7/3,6/2,{4}5-8[16:1]/1-4[16:1],
{32}E1/E5,C,
E
