&title=Kakera
&artist=CLTH / IVAVI
&first=-0.31
&lv_5=13+
&des_5=CLEAR
&inote_5=
(167){4},{16},,,,,,,,,,,,,,,,,,3,
4,{2}5<4[2:3],
{1},{4},{8},{16}5,
6,{2}7h[4:5],
{1}3h[4:3],
{4}8bv5[8:1]/2bv5[8:1],8b/2b,{16}4h[4:1]/6h[4:1],,,,,3,6,4,
{4}5<8[8:1],{16}4,3,{8}2h[8:1],,2/8,3,6/4,
{4}4-1[8:1]/6-1[8:1],6/4,{16}7h[4:1]/3h[4:1],,,,,8,2,7,
{4}3-8[8:1],{16}6,5,{8}4,{6}1/4,6/2,{48},,{16}3,5,
{4}3h[8:1],3b,{16}3,4,3,4,2,5,2,5,
1,6,1,6,1,2,3,7,6,5,3,4,3,4,2,5,
3,4,3,5,4,5,4,6,3b,6,5,6,3b,6,5,6,
{6}3b,2b-5[12:1]/7b-4[12:1],{24},{8}7b/2b,,,,,,,,,{2}6h[4:3],
{8},,,4,{2}3h[4:3],
{4}5,6,{2}7h[4:3],
{8},,,3,{2}2h[2:1],
{8}1w5[4:1],,,,,6,,6,
3V16[8:5],5,,4,,4h[4:1],,,{4}4,
5,{8}6V83[8:5],4,{4}4,
3,2,{8}2h[8:1],5h[8:1],,2,
5/2h[4:1],5,{16},,,,5,4,{8}5,{4}6/3,
{16}1,8,{8}1,{4}7/2,{8}3qq7[2:1],5,5,6h[8:1],
,6,{4}6,{8}5h[4:1],4,3h[4:1],6,
7h[4:1],2,1h[4:1],8,{24},,,,8/1w5[3:1],,,,,8/2,,,,,,,,,,,,,,,{6}4/5,
5h[3:1]/4h[3:1],,,6h[3:1]/3h[3:1],
{24},,,,,,,{8}7/2,4/5,8/1,
{2}7/2w6[16:1],8h[4:1]/4h[4:1],
7h[4:1]/3h[4:1],{8}6/2,5/1,4/8,1/5,
{2}5/1-5[8:1],4qq1[8:29],
8,{32}7,6,{16}5h[16:7],,,,,,,,,,,,,,,{2}4h[2:1],
{4},5,5,6,
{2}6-1[8:1],{8}7h[4:1]/2h[4:1],,,6h[4:1]/3h[4:1],
{16},,,,4,5,{8}4,3h[4:1]/6h[4:1],,,7h[4:1]/2h[4:1],
{16},,,,1,8,1,8,{4}1pp4[1:1],{8}7,7,
7,6,6,{16}6,7,{8}8h[4:1],,,8b,
8b,3h[4:1],,,{4}4<8[4:1],8>4[4:1],
4<8[4:1],8V63[4:1]*V62[4:1],{8},,,,2,
1,{4}1<5[4:1],5V31[4:1],1V75[4:1],
5V31[4:1],1V74[4:1]*V36[4:1],{8},,,,4/6,
6/4,7/3,7/3,{4}3h[8:1]/7h[8:1],7h[8:1]/4h[8:1],
1h[8:1]/2h[8:1],8h[8:1]/7h[8:1],{16}5,6,5,6,{4}4h[8:1]/7h[8:1],
3h[8:1]/8h[8:1],{8}8/3,7/4,5v3[8:1]/6v8[8:1],8V62[8:1]/3V51[8:1],{16},,,,,,,,8,
7,6,5,4/1,2,3,4,6,7,8,1,
{4}2h[8:1],3h[8:1]/1h[8:1],4-8[8:1]/8-4[8:1],4V28[8:1]/8V64[8:1],
{2}4v2[8:1]/8v6[8:1],7h[4:1]/3h[4:1],
{4}6<8[8:1]/2<8[8:1],6-4[8:1]/2-4[8:1],{2}6-8[8:1]/2-8[8:1],
{4}7/1pp4[2:1],{8}6,6,5,5,{4}5-8[8:1]*-2[8:1],
5,1-6[8:1]*v4[8:1],1,5h[8:1],
6h[8:1]/4h[8:1],{16}3,7,3,7,{4}2h[8:1]/8h[8:1],6h[8:1]/4h[8:1],
7h[8:1]/4h[8:1],4h[8:1]/2h[8:1],{16}3,4,3,4,2,4,1,6,
3,5,3,6,4,6,4,3>6[16:13],{6}5,4,{12},4,
,,{6}4b>2[12:1],{12},4b,{48},,,,,,,,,,,,{16}6,5,{8}4,
{16}4h[4:1],,,,,3,4,3,{8}5/2,1,{4}6-3[8:1]/8-3[8:1],
8/6,4h[8:1]/2h[8:1],{16}3h[4:1]/5h[4:1],,,,,6,7,8,
{4}1v4[8:1]*v6[8:1],1,{8}3p7[8:1]/7p3[8:1],2/6,{4}3<6[8:1]/7>2[8:1],
7/3,3/7,{16}4h[4:1],,,,,8,{8}1,
{16}5h[4:1],,,,,1,{8}8,{16}3h[4:1],,,,,8,{8}1,
{2}6h[4:1],{8}3h[4:1]/4h[4:1],{16},,,,5>2[8:1],4,
{2}5h[4:1],{16}3,8,3,1,6,1,{8}6,
{6}2b-6[8:1],2b/8bqq5[6:5],{24}8b,,,,,,,2,,,{4}1s5[4:1],
{2}1,{8}1pp4[2:1],7,{4}8z4[4:1],
{2}8,{8}6/3,8qq4[8:3],{4}1s5[4:1],
{2}1,{6}5/4,6/3,1/8,
5/4,6/3,1/8,{48}8b,,,1,,,{16}8,1,7b,1,7,1,
6b,1,6,1,5b,1,5,1,6b,1,5,1,6b,1,5,1,
{8}6b,5/2,{4}7/1,{16}8,2,8,1b,8,2,8,1b,
8,2,8,1b,8-4[8:1],2,8,1b,{2}8,
{4},,4,3>6[4:5],
{2}4,{4}5,6<3[0.7186##0.8982],
5,4,{2}4,
{4}4h[4:1],3,5/4,6/3,
7/2,8/1w5[8:1],{2}1<2[4:5],
6h[4:1],{8}6,6,7,7,
8,8,{4}1-5[8:1],,8-6[8:1],
{1}8/2pp5[4:3],
{2}6h[4:1],{4}4qq8[8:7],7-5[8:1],
7,4-8[8:1],,,5pp1[8:7],
2-4[8:1],2,5w1[8:1],
,,,,8h[4:1],
1s5[8:1]*s5[8:1],1b,{8}6/4,3,
2-4[8:1]/8-6[8:1],7/3,{4}2/8,{16}5,4,{8}5,6/3,2,
5/1,2/6,{4}2qq3[4:1]/6qq7[4:1],{2}2/6,
{4}1v4[8:1]/5-8[8:1],5/1,{16}8,7,6,5,3,4,5,6,
{6}7/8,7-4[12:1]/8-3[12:1],{3}8/7,{12},{4}8/2-6[8:1],
2/7-4[8:1],7/5-8[8:1]*-2[8:1],{8}5,,,7h[8:1]/1h[8:1],
,7/1,{4}8/2-4[8:1],2/1-5[8:1],1/8-4[8:1],
8/7-5[8:1],7-3[8:1],7/1-6[8:1]*-4[8:1],1,
7h[8:1]/3h[8:1],8h[8:1]/2h[8:1],{16}8,2,{8}6h[8:1],4,6,
3/7,2,6/3,2,{16}5,4,5,4,{8}3/6,7/2,
4,1/2,6,4/3,{16}5b,2,5,4,6b,4,6,4,
5b,3,6,1,7b,4,{8}5,{6}1h[2:1],5h[3:1],{4},{64},,{96},{32}5b/1b,
6/2,7/3,8/4,{4}5bw1[8:1]*s1[8:1],{2}5<4[8:11]*>6[8:11],
{8},,,,,,,,,,,,5,
4qq1[2:1],5,5s1[4:1],
{24},,,,,,,,,,,,{6}7/8,5/6,7/2,
1b,1b,4b/5b,{48}3,,,6,,,{16}2,7,4,5,3,6,
4,5,4,6,3,5,1,7,4,5,2,6,5,6,{8}5,
3h[4:1]/7h[4:1],,,6/2,{16}6,2,7,3,6,2,7,2,
6b,2,5b,2,4bz8[8:1]*z8[8:1],2,5b,2,{2}4b,
E
