&title=Watch me!
&artist=YOASOBI
&first=-0.7099996
&lv_5=13+
&des_5=Lu000
&inote_5=
(128){4},{8},,,4,6,2,
{4}5<8[8:1],{16}3,,,1,{8}1,8,2-8[8:1],7-5[8:1],
2V48[4:1],7,2,5<2[4:1],,2,3,4,
{4}5-8[8:1]*-2[8:1],5,{8}7/3,6,2/5-7[8:1],3V15[4:1],
5,3,8,8<4[4:1],,4,3,2,
1-5[8:1],,,6,6,4,7,3,
8-5[8:1],5-1[8:1]*-2[8:1],,,,8,7/4,5/6,
,1,2/5,4/3,,1/8<5[8:1],{4}7/2,
4h[8:3],{8}5,5,{16}5h[16:3],,,4,,3,5,4,
6,5,,4/7,,6,3,5,2,4,,3/1,,2,8,1,
{8}7h[4:1],6,5,6/4,{16}3/5,,,7/1,,2,8,2,
{8}8-5[12:1],8,3-7[12:1],3,5w1[8:1],5,{4}5,
3bqq8[2:1],,,7b,
{8}6/4,{16}3,5,3,5,,4/2,,,{8}1>4[8:1]/8<5[8:1],7/2,8/1,
,5h[16:5],4,{16}3,3h[16:7],,,{8}2,,1,
7,{16}2,2>5[8:1],,5,,2,,,{8}6-2[8:1],7,8,
,3/1,2/8,{16}1/7,7/1,,,{8}5-1[8:1],6/4,5,
,6/8,7/1,{16}8/2,2/8,,,{8}4-8[8:1],3/5,4,
6v1[8:1],1V75[16:3],{16}2,2,,3,,,{8}4,5/3,6s2[4:1]/2s6[4:1],
{2}6/2,{16}5,3,6,4,,4/7,{8}4/7,
5-1[8:1],1-5[8:1],{16},,,,6b,,,7b,,,{8}8b,
{16}4,1,3,8,{8}2,1/7qq4[4:1],2,{16}3,3h[16:3],,,,,5,
4,6,5,7,7,,,4,5,3,4,2,2,,,5,
5,3,3,,4/6,,4/6,,3/7,{8}7/3,2>5[8:1],6,
2-6[8:1],6,2<4[4:1],8,{16}2,,,1,,,{8}7,
5-7[8:1],5-3[8:1],{4}5-1[8:1],{16},,,,2,1,3,8,
{8}4-1[8:1],4,5-8[8:1],5,3-7[8:1],3,1w5[8:1],1,
1,,,7/5,8/1,2/4,1-3[8:1]/8-4[8:1],7,
{4}1-5[8:1]/8-6[8:1],1/8,{16}7V15[16:3],,,4V26[16:3],,,,,,,,,{8}7-1[8:1],
2-4[8:1],7V51[4:1],2,{4}7,
4-8[8:1],4/8,{16}7<4[16:3],,,4>1[16:3],,,{8}1<7[8:1],
,,,4,3,2/6,1-4[8:1],8,
1-6[8:1],5,1>6[4:1],5,1,6,7,8-4[8:1],
,8-2[8:1],2-6[8:1],8,3,4,4-8[8:1],6,
{2}4-7[8:1]*-1[8:1],{16}6b/2b,,,8b/4b,,,{8}6b/2b,
,,,2/4,1/8,7/5,8-6[8:1]/1-5[8:1],2,
{4}8-4[8:1]/1-3[8:1],8/1,{16}5qq5[16:3],,,5pp5[16:3],,,,,,,,,,,5,
4,6,6,,3/7,,6/2,{8}2/6,
{4}5-1[8:1],5/1,{16}2>5[16:3],,,5<8[16:3],,,{8}8>2[8:1],
,,,4,5/2,6,3/7,8,
1/2>5[8:1],3,2/1<6[8:1],8,2/1,3-7[8:1],4,3/5<2[4:1],
,2,3,4,5-1[8:1],1-4[8:1],{4}5,
7-5[8:1],7/8-4[8:1],{16}8/1b,,,2b,,,{8}5b,
,,,7/5,8/1,2/4,{4}8h[8:1]/1h[8:1],
{16}7,5,6,4,,5/3,,4/6,,1/5,,7/3,,4,{8}4,
{4}6-2[8:1],4/6pp1[8:3],{16}4h[8:1],,,4h[8:1],,,{8}4>8[4:1],
,8V24[4:1],7,6,{16}5h[8:1],,,5h[8:1],,,{8}4,
{4}2-5[8:1]/6-1[8:1],2/6,{8}1-5[8:1],5bw1[8:1],
E
