&title=眠れぬ夜君を想フ
&artist=baker
&first=0.25
&des=H@NE
&lv_5=13+
&lv_6=13+
&inote_5=(130)
{1},
{8}5pp1[2:1],,,,,,,,
{4}2h[2:1]/6pp4[2:1],,,,
{4}4h[4:1]/3qq8[2:1],,5,6,
{8}7h[4:1]/3,,1>4[8:1],,1<6[8:1],8,1,5,
{24}6/4,,,3,,,2/4,,,3,,,4-2[12:1]/6,,,7h[12:1],,,4,,,5,,,
{8}2/4,3,4/6,7,6-4[12:1]/4,3h[12:1],6,1,
{8}2/4,5,4/6,7,4-2[12:1]/6,7h[12:1],4,5,
{24}2/4,,,3,,,4/6,,,5,,,2V48[6:1]/4,,,5,,5,2,,,6,,,
{24}1/7,,,6,,,4/5,,,3,,,2-4[12:1]/5,,,6,,6,2,,,8,,,
{24}7/5,,,4,,,3/4,,,2,,,1/5-7[12:1],,,2,,2,5,,,4,,,
{24}5/8,,,7,,,6/4,,,3,,,2-4[12:1]/4,,,5,,5,2,,,7,,,
{24}6,,6,4,,4,8z4[8:1],,8,,,,8b/4b,,,,,,,,,2,,2,
{24}7h[8:1],,,4,,,2/7<4[8:1],,,8,,,7/3,,,1,,1,,,,6,,6,
{24}4h[8:1],,,8,,,6/4,,,3,,,7,,7,5,,5h[6:1],,,,8,,,
{8}4/7-5[12:1],3,2/7,1,2-4[12:1]/6,7,8/2,7,
{24}6-8[8:1]/4-2[8:1],,,,,,4/6,,,,,,1-5[8:1],,,2/8,,,1,,,7,,7,
{24}4h[8:1],,,1,,,8/3qq2[6:1],,,4,,,6/3,,,5,,5,,,,2,,2,
{24}7h[8:1],,,5,,,4/6,,,5,,,2,,2,4,,4h[6:1],,,,2,,,
{8}3-5[12:1]/5,2,3/5,7,2-6[8:1]/6,1,2/6,8,
{24}5,,5,6,,6,1s5[4:1],,1,,,,1b/5b,,,,,,,,,,,,
{4}6h[1:1]/4qq8[2:1],,,,2qq5[2:1],,,,
{8}7h[4:1]/4,,2V41[4:1],,1V38[4:1],,7,,
{8}6h[4:1],,8h[4:1],,4h[4:1],1,2,3,
{24}4h[8:1]/6,,,8,,,3h[8:1]/5,,,8,,,4/6-4[12:1],,,3,,3,6,,,1,,,
{24}3/5h[8:1],,,1,,,6h[8:1]/4,,,1,,,5/3-5[12:1],,,6,,6,3,,,8,,,
{24}5h[8:1]/6,,,8,,,4h[8:1]/6,,,8,,,5-7[12:1]/3,,,2,,2,5,,,4,,,
{8}5/7,6,2>5[8:1]/4-8[8:1],6/1,2b/4b,,,
{24}6,,2,
{24}5-3[12:1],,,4,,8,5-7[12:1],,,6,,2,5V31[6:1],,,3,,8,5,,,6,,,
{24}4-2[12:1],,,2,,7,4V68[6:1],,,6,,2,4,,,3,,3h[6:1],,,,1,,,
{24}4/7,,,6,,,4/2,,,3,,,1/7h[8:1],,,5,,,2h[8:1]/4,,,8,,,
{24}7-2[16:1],,,1,,,3-6[16:1],,,5,,,7-1[12:1]*-3[12:1],,,1,,,7b,,,,,,
{24}4-2[12:1],,,2,,6,4V68[6:1],,,5,,1,4
,,,2,,,3,,,4,,,
{24}5-7[12:1],,,6,,2,5V31[6:1],,,3,,8,5,,,7,,7h[6:1],,,,2,,,
{24}3/6,,,4,,,7/5,,,6,,,5/1h[8:1],,,3,,,4/8h[8:1],,,6,,,
{24}5/7,,,4/3,,,1/7,,,6/5,,,4s8[8:1]/8,,,,,,,,,,,,
{24}1h[8:1]/6,,,5,,,2h[8:1]/6,,,7,,,3,,3,4,,4h[6:1],3,,,2,,,
{24}1/5h[8:1],,,8,,,1/6h[8:1],,,2,,,7,,7,8,,8h[6:1],7,,,6,,,
{24}5h[8:1]/2,,,1,,,2/7h[8:1],,,3,,,2V48[8:1],,2,1,,1,2,,,6,,,
{8}1/5,2,3/8,7,6<2[8:1],2v4[8:1],6,,
{24}1h[8:1],,,5,,,2h[8:1]/6,,,5,,,3,,3,4,,4h[6:1],3,,,2,,,
{24}1/5h[8:1],,,2,,,6h[8:1]/3,,,2,,,7,,7,8,,8h[6:1],7,,,6,,,
{24}1/5,,,2,,,3/7,,,6,,,2V48[6:1],,2,6,,6h[6:1],2,,,,,,
{24}6,,6,2,,2,4w8[12:1],,3,,,,4b,,,,,,,,,,,,
{8}3qq5[2:1]/6h[2:1],,,,,,,,6pp4[2:1],,,,,,,,1pp5[2:1]/5,,6,,7,,8,,1qq6[2:1]/5h[8:1],,4h[8:1],,3h[8:1],,2,7,
{24}2/8h[8:1],,,5,,,1h[8:1]/7,,,4,,,2V48[6:1]/8,,,7,,7,2,,,5,,,
{24}1h[8:1]/7,,,4,,,2/8h[8:1],,,5,,,7V51[6:1]/1,,,2,,2,7,,,4,,,
{24}3/8h[8:1],,,5,,,1h[8:1]/6,,,4,,,2V48[6:1]/8,,,7,,7,2,,,5,,,
{8}1/7,5/6,3<6[8:1]/7p2[8:1],1/8,3b/7b,,,,
{16}1,6,3,6,8,6,8,6,
{32}1,2,3,4,5,6,7,8,1/5<8[12:1],,,,
{24}6,,3,5v3[12:1],,,4,,7,5<8[12:1],,,6,,2,5>8[6:1],,,4,,7,5,,,6,,,
{24}4v2[12:1],,,2,,6,4<1[6:1],,,5,,1,4,,,2,,3h[6:1],,,,8,,,
{8}6h[8:1]/5,1,3h[8:1]/4,8,6h[8:1]/4,1,3h[8:1]/5,8,5/7-5[12:1],8,4-8[12:1]/7,3,1-3[12:1]/4,2,1/7,,
{24}4v2[12:1]/8,,,3,,6,4<1[6:1],,,5,,1,4,,,2,,,3,,,4,,,
{24}5v7[12:1]/8,,,7,,3,5>8[6:1],,,4,,8,5,,,7,,6h[6:1],,,,1,,,
{8}2/7h[8:1],5,1h[8:1]/6pp4[3:1],4,6,4,3,2,
{8}3/5,4/7,1/8,2/5,1s5[8:1]/8z4[8:1],,,,
{24}3,,3,5,,5,4,,4,6,,6,3V52[6:1],,3,7,,7,3,,,6,,,
{24}1/6,,1,6,,6,2,,2,7,,7,3V52[6:1],,3,8,,8,3,,,6,,,
{24}1/7,,7,2,,2,5,,5,1,,1,6V84[6:1],,6,3,,3,6,,,1,,,
{24}2,,2,4,,4,3-1[12:1],,3,7v4[12:1],,7,3v8[12:1],,,7-5[12:1],,,3,,,7,,,
{24}1,,1,7,,7,6,,6,5,,5,4,,4,3,,3,2,,,1/8,,,
{24}7/1,,7,1,,1,2,,2,3,,3,4,,4,5,,5,6,,,1/7,,,
{24}2/7,,2,8,,8,6,,6,5,,5,4,,4,3,,3,1,,,2/6,,,
{24}3,,3,5,,5,2-6[12:1]*-4[12:1],,1/8,,,,2b,,,,,,3/7,,,4,,6,
{24}3,,3,5,,5,2,,1/8,,,,2h[4:1]/4,,,5,,,6,,,7,,,
{24}1,,1,8,,8,2-5[12:1]/7-4[12:1],,1/8,,,,2b/7b,,
&inote_6=(130)
{1},
{8}5pp1[2:1],,,,,,,,
{4}2h[2:1]/6pp4[2:1],,,,
{4}4h[4:1]/3qq8[2:1],,5,6,
{8}7h[4:1]/3,,1>4[8:1],,1<6[8:1],8,1,5,
{24}6/4,,,3,,,2/4,,,3,,,4-2[12:1]/6,,,7h[12:1],,,4,,,5,,,
{8}2/4,3,4/6,7,6-4[12:1]/4,3h[12:1],6,1,
{8}2/4,5,4/6,7,4-2[12:1]/6,7h[12:1],4,5,
{24}2/4,,,3,,,4/6,,,5,,,2V48[6:1]/4,,,5,,5,2,,,6,,,
{24}1/7,,,6,,,4/5,,,3,,,2-4[12:1]/5,,,6,,6,2,,,8,,,
{24}7/5,,,4,,,3/4,,,2,,,1/5-7[12:1],,,2,,2,5,,,4,,,
{24}5/8,,,7,,,6/4,,,3,,,2-4[12:1]/4,,,5,,5,2,,,7,,,
{24}6,,6,4,,4,8z4[8:1],,8,,,,8b/4b,,,,,,,,,2,,2,
{24}7h[8:1],,,4,,,2/7<4[8:1],,,8,,,7/3,,,1,,1,,,,6,,6,
{24}4h[8:1],,,8,,,6/4,,,3,,,7,,7,5,,5h[6:1],,,,8,,,
{8}4/7-5[12:1],3,2/7,1,2-4[12:1]/6,7,8/2,7,
{24}6-8[8:1]/4-2[8:1],,,,,,4/6,,,,,,1-5[8:1],,,2/8,,,1,,,7,,7,
{24}4h[8:1],,,1,,,8/3qq2[6:1],,,4,,,6/3,,,5,,5,,,,2,,2,
{24}7h[8:1],,,5,,,4/6,,,5,,,2,,2,4,,4h[6:1],,,,2,,,
{8}3-5[12:1]/5,2,3/5,7,2-6[8:1]/6,1,2/6,8,
{24}5,,5,6,,6,1s5[4:1],,1,,,,1b/5b,,,,,,,,,,,,
{4}6h[1:1]/4qq8[2:1],,,,2qq5[2:1],,,,
{8}7h[4:1]/4,,2V41[4:1],,1V38[4:1],,7,,
{8}6h[4:1],,8h[4:1],,4h[4:1],1,2,3,
{24}4h[8:1]/6,,,8,,,3h[8:1]/5,,,8,,,4/6-4[12:1],,,3,,3,6,,,1,,,
{24}3/5h[8:1],,,1,,,6h[8:1]/4,,,1,,,5/3-5[12:1],,,6,,6,3,,,8,,,
{24}5h[8:1]/6,,,8,,,4h[8:1]/6,,,8,,,5-7[12:1]/3,,,2,,2,5,,,4,,,
{8}5/7,6,2>5[8:1]/4-8[8:1],6/1,2b/4b,,,
{24}6,,2,
{24}5-3[12:1],,,4,,8,5-7[12:1],,,6,,2,5V31[6:1],,,3,,8,5,,,6,,,
{24}4-2[12:1],,,2,,7,4V68[6:1],,,6,,2,4,,,3,,3h[6:1],,,,1,,,
{24}4/7,,,6,,,4/2,,,3,,,1/7h[8:1],,,5,,,2h[8:1]/4,,,8,,,
{24}7-2[16:1],,,1,,,3-6[16:1],,,5,,,7-1[12:1]*-3[12:1],,,1,,,7b,,,,,,
{24}4-2[12:1],,,2,,6,4V68[6:1],,,5,,1,4
,,,2,,,3,,,4,,,
{24}5-7[12:1],,,6,,2,5V31[6:1],,,3,,8,5,,,7,,7h[6:1],,,,2,,,
{24}3/6,,,4,,,7/5,,,6,,,5/1h[8:1],,,3,,,4/8h[8:1],,,6,,,
{24}5/7,,,4/3,,,1/7,,,6/5,,,8-4[8:1]/4,,,,,,,,,,,,
{24}1h[8:1],,,5,,,2h[8:1],,,5,,,3h[12:1],,,4,,4h[6:1],3,,,2,,,
{24}5h[8:1],,,1,,,6h[8:1],,,1,,,7h[12:1],,,8,,8h[6:1],7,,,6,,,
{24}5h[8:1],,,1,,,5h[8:1],,,2,,,2V48[8:1],,2,7,,7,2,,,5,,,
{8}1/5,2,3/8,7,6<2[8:1],2v4[8:1],6,,
{24}1h[8:1],,,5,,,2h[8:1]/6,,,5,,,3,,3,4,,4h[6:1],3,,,2,,,
{24}1/5h[8:1],,,2,,,6h[8:1]/3,,,2,,,7,,7,8,,8h[6:1],7,,,6,,,
{24}1/5,,,2,,,3/7,,,6,,,2V48[6:1],,2,6,,6h[6:1],2,,,,,,
{24}6,,6,2,,2,4w8[12:1],,3,,,,4b,,,,,,,,,,,,
{8}3qq5[2:1]/6h[2:1],,,,,,,,6pp4[2:1],,,,,,,,1pp5[2:1]/5,,6,,7,,8,,1-5[8:1]/5h[8:1],,4h[8:1],,
{24}3,,3,5,,,6,,6,3,,,
{24}2/8h[8:1],,,5,,,1h[8:1]/7,,,4,,,2V48[6:1]/8,,,7,,7,2,,,5,,,
{24}1h[8:1]/7,,,4,,,2/8h[8:1],,,5,,,7V51[6:1]/1,,,2,,2,7,,,4,,,
{24}3/8h[8:1],,,5,,,1h[8:1]/6,,,4,,,2V48[6:1]/8,,,7,,7,2,,,5,,,
{8}1/7,5/6,3<6[8:1]/7p2[8:1],1/8,3b/7b,,,,
{16}1,6,3,6,8,6,8,6,
{32}1,2,3,4,5,6,7,8,1/5<8[12:1],,,,
{24}6,,3,5v3[12:1],,,4,,7,5<8[12:1],,,6,,2,5>8[6:1],,,4,,7,5,,,6,,,
{24}4v2[12:1],,,2,,6,4<1[6:1],,,5,,1,4,,,2,,3h[6:1],,,,8,,,
{8}6h[8:1]/5,1,3h[8:1]/4,8,6h[8:1]/4,1,3h[8:1]/5,8,5/7-5[12:1],8,4-8[12:1]/7,3,1-3[12:1]/4,2,1/7,,
{24}4v2[12:1]/8,,,3,,6,4<1[6:1],,,5,,1,4,,,2,,,3,,,4,,,
{24}5v7[12:1]/8,,,7,,3,5>8[6:1],,,4,,8,5,,,7,,6h[6:1],,,,1,,,
{8}2/7h[8:1],5,1h[8:1]/6pp4[3:1],4,6,4,3,2,
{8}3/5,4/7,1/8,2/5,1s5[8:1]/8z4[8:1],,,,
{24}3,,3,5,,5,4,,4,6,,6,3V52[6:1],,3,7,,7,3,,,6,,,
{24}1/6,,1,6,,6,2,,2,7,,7,3V52[6:1],,3,8,,8,3,,,6,,,
{24}1/7,,7,2,,2,5,,5,1,,1,6V84[6:1],,6,3,,3,6,,,1,,,
{24}2,,2,4,,4,3-1[12:1],,3,7v4[12:1],,7,3v8[12:1],,,7-5[12:1],,,3,,,7,,,
{24}1,,1,7,,7,6,,6,5,,5,4,,4,3,,3,2,,,1/8,,,
{24}7/1,,7,1,,1,2,,2,3,,3,4,,4,5,,5,6,,,1/7,,,
{24}2/7,,2,8,,8,6,,6,5,,5,4,,4,3,,3,1,,,2/6,,,
{24}3,,3,5,,5,2-6[12:1]*-4[12:1],,1/8,,,,2b,,,,,,3/7,,,4,,6,
{24}3,,3,5,,5,2,,1/8,,,,2h[4:1]/4,,,5,,,6,,,7,,,
{24}1,,1,8,,8,2-5[12:1]/7-4[12:1],,1/8,,,,2b/7b,,
