&title=さよーならまたいつか!
&artist=米津玄师(明透 cover ver.)
&first=0.04
&des=STEXxx
&lv_5=12+
&inote_5=(122){4},{16},,,,,,,,,1pp4pp7pp2[16:43],{1},,,{16},1p4[4:1]/8q5[4:1],
,,,,,,,,,,,6,,6/5,,7,
,8>3[8:1]/7<4[8:1],,,,7/8,,,,1<6[8:1]/2>5[8:1],,,,2/1,,,,5/4,
,,,4,,3,,2h[4:3],,,,5,,6,
,7h[4:1],,,,,,,,1/8h[4:1],,,,4-1[8:1],,,,8-5[8:1],
,,,,,,,6/4,,7,,6/4,,3,
,8/2-6[8:1],,,,2/8-4[8:1],,,,8/1-5[8:1],,,,1/7-3[8:1],,,,7/2>4[8:1],
,,,2/8<6[8:1],,,,8/1>1[4:3],,,,,,,,,,,,,,,,,,B5/E6,
B6,B7,B8/B1,4-8[4:1],
,,,,,,,,,7h[16:1],,1,,7-4[8:1]/8-3[8:1],,6/1,
,8/7,,,,2-5[8:1]/1-6[8:1],,,,2/1,,,,8<5[8:1]/1>4[8:1],,,,1/8,
,,,3,,2,,1>4[4:1],,,,6,,7,
,8<5[4:1],,,,3,,,2h[16:1],,,1,6,8h[8:1],,7,
,6<8[8:1]/1>3[8:1],,,,,,,,7>2[8:1],,2<7[8:1],,,,,,3-8[8:1],
,,,3/6-1[8:1],,,,6/2-5[8:1],,,,2/7-4[8:1],,,,7/1>3[8:1],
,,,1/5<7[8:1],,,,5/4>4[4:3],,,,,,,,,,,,B1,
,,,B8,,B4,B3/B7,B2/B6,B1/B5,E1/A8/B8/E5/A4/B4,
,,,8h[8:1]/4h[8:1],,,,1h[8:1]/5h[8:1],,,,6/2,,2>4[8:1]/6<8[8:1],,,,6>4[8:1]/2<8[8:1],
,,,2-4[8:1]/6-8[8:1],,,,2-8[8:1]/6-4[8:1],,,,,,,,8>3[8:1]/4<7[8:1],
,,,,,,,8<5[8:1]/4>1[8:1],,,,,,,,1>3[8:1]/5<7[8:1],
,,,1<7[8:1]/5>3[8:1],,,,1>3[8:1]/5<7[8:1],,,,1p5[8:1]/5p1[8:1],,,,5<1[4:1]/1>5[4:1],
,,,,,,,,,3,,7,{8}2,
{16},1v4[8:1],,8v5[8:1],,1>4[8:1],,8<5[8:1],,1-5[8:1],,8-4[8:1],,1,,8,
,1>4[8:1],,,,1/8<5[8:1],,,,8/1w5[8:1],,,,1,,,,7/1,
,,,8>4[4:1],,,,4<8[4:1],,,,8,,1w5[8:3],
,,,1,,,,,,,,,,,,3/7-2[8:3],
,,,,,,,,,,,1,,8-4[8:1],,1,
,8>4[4:1],,,,4<8[4:1],,,,8q5[4:1],,,,5q2[4:1],,,,2q7[4:1],
,,,7,,1,,8h[8:5],,6h[8:1],,,,5,
,4qq1[4:1],,,,,,8,,7-3[8:1],,2,,7,,2h[8:1],
,,,7<5<7[4:1]/3>1>3[4:1],,8/4,,,,,,,,6,,8,
,2>5[8:1],,,,2/8<5[4:1],,,8,5>3[8:1],,3,,2qq6[4:1],,2,
,,,,,,,5>2[8:1]/1<6[8:1],,,,,,,,3h[4:1],
,,,,,8-4[4:1],,,,4-1[4:1],,,,1-5[4:1],,,,5q8[8:3],
,,,,,,,,,4,,5-1[8:1],,4,
,5>1[4:1],,,,1<5[4:1],,,,5p8[4:1],,,,8p3[4:1],,,,3p6[4:1],
,,,6,,8,,1h[2:1],,,,3h[8:1],,,,4,
,,,4-6[8:1],,4-2[8:1],,4-7[8:1],,4-1[8:1],,4-8[8:1],,4>1[8:3],
,4,,,,,,,,,,,,2x,1x,8x>3[4:1],
,4b,,,,,,,,6,,,,7x,8x,1x<6[4:1],
,5b,,,,4,,,,3/8h[8:1],,3,,3/8,2/7,6bx<1b[4:1]/1bx>4b[4:1],
,,,,,,,,,,,,,2<7[8:1],,7>2[8:1],
,,,,,,,5pp5b[4:1]*qq5b[4:1],,5,,,,,,,,6,
,5<7[4:1],4,3>1[4:1],,,,,,,,,,B8,
,B1,,B7,,B2,,B6,,3/5<8[8:1],,,,,,2>5[8:1],
,5<7[8:1],,7>5[8:3],,,,,,,,,,,,B7,
,B1,,E6,,B2,,B5,,B4/B3/E4,,,,4,,5,
,6<8[8:1],,,,6/4>2[8:1],,,5-1[8:1],4,,5,,3-7[8:1],,3h[8:1],
,,,8>4[4:1],,,,4<8[4:1],,,,,,,,5h[4:1],
,,,4,,6,,3,,7-5-8[2:1],,2-4-1[8:3],,7,,,,,,,,,,1-3[8:1],
,8-5[8:1],,1-4[8:1],,8-6[8:1],,1,
,8,,3>1[4:1],4,5<7[4:1],,,,,,,,,,E8/B8,
,B2/E3,,B6/B5,,E1/B8,,E5/B4,,8>4[4:1],,,,,,,,8<5[8:1],
,7,,8>3[8:1],,1,,8,,,,B7/E7/B6,,B2/E3/B3,
,5/B1/E1/E2,,3/E8/B8/B7,,6/E2/B2/E3,,B8/E1/B1/B5/E5/B4,,2>5[8:1]/6<1[8:1],,,,,,,,5/1,
,5b>1[8:1]/1b<5[8:1],,,,,,,,,,1h[16:1]/5h[16:1],,1bpp4[4:1]/5bpp8[4:1],
,,,,,,,,,5/1,,5/1,,4/8,3/7,2bp7[4:1]/6bp3[4:1],
,,,,,,,,,,,,,7>2[8:1],,2<7[8:1],
,,,,,,,4pp4[8:1]*qq4[8:1],,6/2,,,,,,3b,
6b,1b,
E
