&title=蒼天
&artist=Meine Meinung
&first=0
&des=Knight of Firmament
&lv_5=13+
&inote_5=(182)
{16},,,,,,,,,,,,,,,,
6h[4:3]/4,,,,,,4,,,,,,4,,3,,
2h[4:3]/4,,,,,,4,,,,,,4,,4,,
3h[4:3]/5,,,,,,5,,,,,,5,,6,,
7h[4:3]/5,,,,,,5,,,,,,5-3[8:1],,5,,
7pp2[2:1],,,,,,5,,,,,,4,,,,
3qq7[2:1],,,,,,4,,,,,,5,,,,
6pp3[2:1],,,,,,5,,,,,,4,,,,
2-8[8:1],,,,8,,7-3[8:1],,,,3,,4-6[8:1],,,,
2qq7[2:1],,,,,,4,,,,,,5,,,,
6pp2[2:1],,,,,,5,,,,,,4,,,,
3qq6[2:1],,,,,,4,,,,,,5,,,,
7-3[8:1],,,,3,,2-6[8:1],,,,6,,8,,,,
7b>6[2:1]/5h[4:1],,,,,,5,,,,,,8-4[8:1],,,,
8/7h[4:1],,,,5,,3h[4:1],,,,5,4,5,,6,,
7qq4[2:1]/1pp4[2:1],,,,,,,,,,,,,,,,
3-8[8:1]/5,,,,6,,6-3[8:1],,,,1,,1,,,,
2<3[2:1]/4h[4:1],,,,,,4,,,,,,1-5[8:1],,,,
1/2h[4:1],,,,6,,7h[4:1],,,,4,5,4,,3,,
2pp1[2:1]/6pp5[2:1],,,,,,,,,,,,,,,,
4-8[8:1]/2,,,,1,,1-5[8:1],,,,7,,7,,,,
6pp1[2:1]/4h[4:1],,,,,,4,,,,,,2-6[8:1],,,,
2/8h[4:1],,,,5,,4h[4:1],,,,6,5,6,,7,,
8qq5[2:1]/3qq8[2:1],,,,,,,,,,,,,,,,
6<3[2:1],,,,4,,4h[8:3],,,,,,,,,,
3qq6[2:1]/5h[4:1],,,,,,5,,,,,,7-3[8:1],,,,
7/2h[4:1],,,,4,,6h[4:1],,,,4,5,4,,3,,
2qq5[2:1]/7pp4[2:1],,,,,,,,,,,,,,,,
3^6[8:1],,,,8,,8,,1,,7,2,7,,7,,
4qq1[1:1],,,,,,,,6,,,,,,,,
1qq6[1:1],,,,,,,,4,,,,,,5,,
6qq3[1:1],,7,,8h[4:1],,,,,,,,,,,,
3qq8[1:1],,,,,,,,5,,,,,,1,,
8qq5[1:1],,7,,6h[4:1],,,,,,,,,,,,
5qq2[1:1],,,,,,,,7,,,,,,1,,
8,,7,,6h[2:1],,,,3h[4:1],,,,,,,,
6,5,,5,6,,3,4,,4,3,,5,,4b,,
5pp8[1:1],,,,,,,,3,,,,,,,,
8pp3[1:1],,,,,,,,5,,,,,,4,,
3pp6[1:1],,2,,1h[4:1],,,,,,,,,,,,
6pp1[1:1],,,,,,,,4,,,,,,8,,
1pp4[1:1],,2,,3h[4:1],,,,,,,,,,,,
4pp7[1:1],,,,,,,,2,,,,,,8,,
1,,2,,3h[2:1],,,,6h[4:1],,,,,,,,
4-8[8:1],,5,,3,,,,27,,1,8,1,,1,,
7^2[8:1],,,,4,,4-1[8:1]*-7[8:1],,,,4,,,,,,
1>5[4:1],,4,,5qq8[8:3],,6,,,,7,,7,,,,
6-4[8:1],,7,,6,,8-2[8:1],,7,,8,,7-3[8:1],,3-7[8:1],,
,,2,,4,,6,,8,,17,,26,,35,,
1b,,2,4,3qq4[8:3],5,4,,,,5,,6,,7,,
8b,,7,5,6pp4[8:3],4,5,,,,4,,3,,2,,
1b,6,4,5,1,6,4,5,1,6,4,5,{32}1b,2,3,4,5,6,7,8,
{16}1,,6,5,6-3[8:1],,4,,3,,2,,15,,15,,
7>3[16:3],,6,,5,,4-1[8:1],,,,6,,6,,,,
8>4[16:3],,7,,6,,5-2[8:1],,,,7,,7,,,,
1>5[16:3],,8,,7,,6qq3[8:3],,,,2,,2,,,,
1-5[8:1],,8,,6-1[8:1],,7,,4-8[8:1],,3,,7,,7,,
1h[4:1],,,,6,5,7>3[4:1],,,,3<7[4:1],,,,7,,
,,2q6[8:1],,8,,,,7p3[8:1],,1,,,,1q5[8:1],,
6,,,,8p4[8:1],,3,,,,2,,3,,4,,
56,,34,,5,,6,3,6,,2,,1,,8,,
2b/7b-3[2:1],,,,,,,,5,,,,,,,,
6-2[2:1],,,,,,,,4,,,,,,,,
5-1[2:1],,,,,,,,3,,,,,,,,
4z8[2:1],,,,4-1[4:1],,,,,,,,,,,,
2-6[2:1],,,,,,,,4,,,,,,,,
3-7[2:1],,,,,,,,5,,,,,,,,
4-8[2:1],,,,,,,,6,,,,,,,,
7,,6,,5,,4,,3,,2,,18,,,,
2h[2:1]/7b,,,,1,,,,4h[4:1],,,,5h[4:1],,,,
6h[2:1],,,,8,,,,3h[4:1],,,,4h[4:1],,,,
5,,6,4,6,,7,,8h[4:1],,,,1h[4:1],,,,
2<4[2:1],,,,3,,3h[8:3],,,,,,,,,,
2h[4:1],,,,8,,8h[4:1],,,,6,,6,,,,
7h[4:1],,,,1,,1h[4:1],,,,3,,3,,,,
4/5-8[4:1],,,,,,,,3,,2,1,2,,,,
2-5[8:1]/7-4[8:1],,,,2b/7b,,,,36,,5,4,5,,3,,
6p3[8:6],,,,,,,,4,,,,,,,,
2qq7[8:6],,,,,,,,5,,,,4,,5,,
6<3[8:4],,6,,,,,,4-8[8:1],,,,,,,,
1>4[8:2],,,,4^7[8:2],,,,7,,,,8,,1,,
7pp2[8:6],,7,,,,,,4,,,,,,,,
3pp6[8:6],,,,,,,,1,,1,,8,,8,,
7,,7^1[8:1],,,,5,,5^3[8:1],,,,,,,,
2,1,,1,2,,7,8,,8,7,,1,,8b,,
3q6[8:6],,,,,,,,5,,,,,,,,
7pp2[8:6],,,,,,,,4,,,,5,,4,,
3>6[8:4],,3,,,,,,5-1[8:1],,,,,,,,
8z4[8:3],,,,6-4[8:1],,,,6,,,,3,,4,,
2qq7[8:6],,2,,,,,,5,,,,,,,,
6qq3[8:6],,,,,,,,8,,8,,1,,1,,
2,,2^8[8:1],,,,4,,4^6[8:1],,,,1,,1,,
1-5[8:1],,8,,2,,,,36,,4,5,4,,4,,
7-5[8:1],,,,1-7[8:1]/7,,2,,3-5[8:1]/1,,,,5/3-1[8:1],,,,
8-6[8:1],,,,2-8[8:1]/8,,3,,4-6[8:1]/2,,,,6/4-2[8:1],,,,
1-7[8:1],,,,3-1[8:1]/1,,4,,5-7[8:1]/3,,,,75,,,,
1,8,1,8,1,8,1,8,1,8,1,8,27,,,,
2-4[8:1],,,,8-2[8:1]/2,,7,,6-4[8:1]/8,,,,4/6-8[8:1],,,,
1-3[8:1],,,,7-1[8:1]/1,,6,,5-3[8:1]/7,,,,3/5-7[8:1],,,,
8-2[8:1],,,,6-8[8:1]/8,,5,,4-2[8:1]/6,,,,24,,,,
5,3,4,3,6,4,5,4,7,5,6,5,7,,1,,
1b-5[8:1],,,,15,,7b-3[8:1],,,,37,,1b-5[8:1],,,,
5-1[8:1],,,,8-3[8:1],,7,,6-3[8:1]/8,,,,6/2-6[8:1],,,,
6-2[8:1],,,,1-4[8:1],,8,,7-4[8:1]/1,,,,7/3-7[8:1],,,,
8bw4[8:1],,,,8b,,,,,,26,,2b^5[8:1]/6b^1[8:1],,,,
2b/6b-2[8:1],,,,1-5[8:1]/6,,8,,7-3[8:1]*-2[8:1]/1,,,,7-4[8:1]*-5[8:1],,,,
7-3[8:1],,,,2-6[8:1]/7,,1,,8-4[8:1]*-3[8:1]/2,,,,8-5[8:1]*-6[8:1],,,,
8-4[8:1],,,,3-7[8:1]/8,,2,,1-5[8:1]*-4[8:1]/3,,,,1-6[8:1]*-7[8:1],,,,
1-5[8:1],,,,15,,6,,7,3,7,3,2b/8b,,,,
7h[4:1]/5,,,,8,,6h[4:1]/4,,,,7,,5h[4:1]/3>5[4:1],,,,
,,,,4h[4:1],,,,3,,8h[4:1]/2,,,,6,,
{24}57,4,3,8,7,6,4,3,2,7,6,5,
{16}2h[4:1]/4b,,,,1,,3h[4:1]/5,,,,2,,4h[4:1]/6<4[4:1],,,,
,,,,5,,5w1[8:1],,,,5,,,,3,,
2b/6b,,4b/8b,,,,,,,,,,,,,,
,,,,,,,,,,,,,,,,
E
