&title=一難
&artist=Penthouse
&first=0.05
&des=Esc
&lv_5=13+
&inote_5=(122)
{4},,,,,,,
{8},,3h[8:2]/5h[8:2],,,,
{16}3h[8:1],,4,,2,4h[8:1],,3,6h[8:1],,4,7h[8:1],,5,8h[8:1],,
5h[8:1],,6,,7,5h[8:1],,6,2h[8:1],,5,3h[8:1],,6,4h[8:1],,
8h[8:1],,5,,3,6h[8:1],,2,4h[8:1],,1,6h[8:1],,3,8h[8:1],,
5h[8:1],,1,,7<8[8:2],,5,,3qq5[8:2],,,,,,,,
6-4[32:3],,,3,6,,2,,1q5[8:1],,,6,1,,7,,8p4[8:1],,,3,8,,,3,
2-5[8:1]/6-1[8:1],,,,,,,,
7h[8:1]/4h[8:1],,,2h[16:3]/5h[16:3],,,,,
4h[8:1]/8h[8:1],,,1h[16:3]/5h[16:3],,,,,
7,7,5,5,4,4,2,2,8w4[8:1],,,,8,,,,2,,6<1[8:1],4,,2,2,,
3,4,,25,,4qq5[16:3]/7,,25,,,8,8,,7,75,,
3,4,,25,,4/7qq8[16:3],,25,,,2,2,,1,83,,2h[8:1]/5h[8:1],,,4h[8:1]/7h[8:1],,,
2h[8:1]/5,,
{32}8,1,2,3,4,5,6,7,8w4[8:1],1,2,3,4,5,6,7,
{16}8,,,,7-5[32:3],,,,
2h[8:3],,,4h[16:3],,,,,
7h[8:3],,,5h[16:3],,,,,
3h[16:3],,,2h[16:3],,,1,,
8v3[8:1]*<4[8:1],,,,,,,,
4h[8:3],,,2h[16:3],,,,,
5h[8:3],,,7h[16:3],,,,,
2h[16:3],,,3h[16:3],,,4,,
5v2[8:1]*<1[8:1],,,,,,,,
2-5[16:2],,,4h[16:3],,,,,
5-3[8:1],,,7,,,8,,
7-4[16:2],,,5h[16:3],,,,,
4-6[8:1],,,2,,,1,,
2-5[16:2],,,4h[16:3],,,,,
5-2[8:1]*-8[8:1],,,5,,,,,
7<8[16:8],,,5pp2[16:5],,,,,,,,,,
,,4,2h[8:1],,4,3,7h[8:1],,5,6,1h[8:1],,5,47,,25,,
3h[16:3]/8,,,4,,2,2,6,4,8>3[8:1],,4,4,,5,,4h[8:1]/8h[8:1],,,37,,26,,15,,
4/8-3[8:1],,,5,5,,,7-3[8:1],7,,,5,5,,,4,2>5[8:1]/6<1[8:1],,,,26,,,,
8h[8:1],,5,6,,7<4[8:1],,1,,37,,1,1-5[8:1],,6,,17,,
6,6h[8:1],,4h[8:1],,2,,
{12}17,56,24,
{16},8-3-7[16:3],,5h[16:3],,,,,,1-6-2[16:3],,5h[16:3],,,,,,
5,,2z6[16:2]/7s3[8:1],,,,,,,,4-1[8:1]*-7[8:1],,,,4,,,,
5/6h[8:1],,3,,7h[8:1]/5-2[8:1]*-1[8:1],,8,,5,,,37,,6,
5,,3>4[32:11]/4,,1,,3/7p3[32:3]*<4[32:3],,,D7f,,,,,
35,,1,,
4/3h[8:1],,6,,2h[8:1]/4-7[8:1]*-8[8:1],,1,,4,,,62,,3,
4,,6-1[32:3]/5,,3,6,,,5,,4>1[8:1]/7<4[8:1],,,,47,,,,
8x/4hx[8:1],,2,,4v6-8[32:3]*-7[32:3]/6h[8:1],,8,,4,,,2h[8:1]/1h[8:1],,,48,,
2x/5hx[8:1],,7,,5v3-1[32:3]*-2[32:3]/3h[8:1],,1,,5,,,7h[8:1]/8h[8:1],,,51,,
2-5[8:1],,4,2,,7,7h[8:1],,5-8[8:1],,2,5,,3,3h[8:1],,
1h[16:3],,,7h[16:3],,,6,,1>4[8:1]/5<8[8:1],,,,1b/5b,,,,
1h[8:1]/5h[8:1],,,3h[8:1]/4h[8:1],,,21,,
8h[8:1]/4h[8:1],,,6h[8:1]/5h[8:1],,,
{32}8bp4[8:1]*q4[8:1],71,26,53,
{16}4qq5[8:2],,,,,,,,
8,8,,,1-6[8:1],,,,1b>4qq5<8b[8:6]/5h[8:8],,,,,,,,,,,,,,,,,,,1,6,6,4,4,
8,8,2,2,,35,,47,,6,5,,2,4,3,7h[8:1],,,5,5,6,4,5,3,2h[8:1]/6h[8:1],,
,47,,25,,48,,
{12}26,26,3-8[8:1]/7-4[8:1],26,15,37,
{16},,,2,2,4,4,3h[8:1],,6,4,,58,,2h[8:1]/6h[8:1],,,3,4,
{32}A7/1hx[16:2],A6,A5,A4,
{16},2x,
{32}D2/8hx[16:2],D3,D4,D5,
{16},7x,
{32}A7/1hx[16:2],A6,A5,A4,
{16},2x,2x,4,3,7,7,5,6,3,4,2,2,6,5,7,7,4,2-5[32:3]/6-1[32:3],,,26,,,48,,3,7,
2,6,1-5[8:1],5,8,4,1b>8[8:3],,,,,,,,,,,,
{12}E8,E7,E6,
{16}E5/2h[8:5],,,E1/B1/B8,,,1<2[8:4],,,,,,
{48}E4,B4,B5,
{16}E6,,,1s5[8:2],,,7,,,7>6[8:3],,,,,,
{16}4,,,,2h[8:2],,,,3-7[8:1],,2,,,,1,,2-6[8:1],,,,5,,,
7-3-5[16:3],,,3,,1h[8:2],,,,6-3[16:2],,,,5,,,4h[16:3],,,2<3[8:2],,4,,,,,,,,
1,,,
2z6[32:5],,,6,,8h[16:3],,,5h[16:3],,,4,,25,25,,34,51,,74,74,,65,
{32}84,,,25,,,47,,,1h[32:7]/5h[32:7],,,
{16},,
{32},2,3,4,
{16}7-3[8:1]/5,,,,7<4[8:1]/3-8[8:1],,,,73,,,,8bw4[8:7]/4,,,,,,,,,,,,,,,,,,,,
6-1[8:1]/5-1[8:1],,,,6b/5b,,,,
{24}28,73,64,
{16}5,,8/4h[8:1],,2,,4<7[8:1]/6h[8:1],,8,,14,,3,3,,7>2[8:1],5,,37,,
4,4h[8:1],,6<4[16:3],5,,1b,,,,8x,1x,2x,3x,
5-2[8:1]/4hx[8:1],,2,,7/5-1[32:3],,6,,2>3-5v8[16:3]/5,,,27,,6,6,,
4-7[8:1]/2h[8:1],,6,,3/4-8[32:3],,2,,7<6-4v1[16:3]/4,,,72,,3,3,,
2-5[8:1],,4,2,,7,7h[8:1],,5-8[8:1],,2,5,,3,3h[8:1],,
1h[16:3],,,7h[16:3],,,6,,15,1/5w1[8:1],,3b/7b,,5b,,,
{32}1b,2,3,4h[32:3],
{16},
{32}2b,3,4,5h[32:7],
{16},1,,
{32}8b,7,6,5h[32:3],
{16},
{32}7b,6,5,4h[32:3],
{16},
{32}8bxqq3[8:4],1/5x,26,37,
{16}4qq7[8:3]/8x,,,,,,,,,,,,
1-6[8:1],,,,1b/5,,4,4,,25,,6,5,7,,2-6[8:1]/5,,47,,25,,7,7,,2,1,3,,
6,5,,7-3[8:1]/4,,52,,7/4qq5[8:2],,,,7,
7h[8:1],,,,5h[8:1]/6h[8:1],,,
4h[8:1]/8h[8:1],,,25,,3,4,,
5h[16:1]/7h[16:1],,2h[16:1]/4h[16:1],,1h[16:1]/7h[16:1],,2h[16:1]/8h[16:1],,
{32}1b,28,3-8[8:1]/7-4[8:1],46,
{16}5,1,,3b/7bqq4qq3[8:8],,,,,,,,2,,,1,,,8,,8h[8:2],,,,,,,,
5h[8:2],,,,4h[8:2],,,,3h[8:2],,,,2pp5pp6[8:7],,,,7,,,8,,,1,,1h[16:6],,,,,,,,
5h[8:2],,,,6,,7,,8p4[8:1],,,,3,,,,1q5[8:1],,,,6,,,,7<4[8:1],,,
3,3>8[8:1],,,5,5,,,,7h[8:1],,5h[8:1],,6h[8:1],,4h[8:1],,5h[8:1],,4h[8:1],,
3h[8:1],,5h[8:1],,1<3[8:4]*V75-3qq2[8:7],,
,,,,,,,,,,,,,,,,,,,,,,
