&title=聖者の息吹
&artist=ZUNTATA
&first=0
&des=喜庆弹射器MK2
&des_5=喜庆弹射器MK2
&lv_5=14
&inote_5=(180){4},,,5h[8:3],
,4h[8:3],,5h[8:7],
,,,4h[8:3],
,5h[8:3],,4h[8:7],
,,,6h[8:3],
,3h[8:3],,5h[8:7],
,,,4h[8:3],
,6h[8:3],,5b/4b,
,3,3,4/2h[8:1],
5/6h[8:1],{8}4/2,{16}2,4,{8}3,5,{4}5/7h[8:1],
4/3h[8:1],5/7h[8:1],4/2h[8:1],5/7h[8:1],
4/3h[8:1],{8}5/7,{16}7,5,{8}6,4,{4}4/2h[8:1],
5/6h[8:1],4/2h[4:1],{16}5,4,5,4,{4}6/3h[8:1],
4/7h[8:1],{8}5/3h[8:1],{16}7,5,{8}6,4,{4}4/2h[8:1],
5/6h[8:1],4/2h[8:1],5/7h[8:1],{8}3h[8:1]/4-8[8:1],4,
,,6h[8:1]/5-1[8:1],5,,,8/2,3/6,
7/4,5/2,{16}3,4,3,4,2,5,2,5,{4}1h[8:1],
{8}5,4,6/2,7,3/8h[8:1],2,5/6,7,
4/3,2,8/4h[8:1],7,6/3,4,5/1,2,
5,4,3/7,2,6/1h[8:1],7,4/2,3,
5/6,7,1/5h[8:1],2,3/6,5,4/8,6,
2,6,7/5,3,5,4,4/2,5,
4,5,6/3,3,4,3,5/2,5,
4,6,4/7,3,4,2,{16}6,3,6,3,
5,4,5,4,5,6,7,8,1,2,3,4,{8}5h[8:1],{16}3,3,
{8}5,4,6h[8:1],{16}3,3,{4}2b/5b,2>5[8:3],
1,8,7,8/6h[4:1],
{8}4,5,4/3,2,5p4[2:1]/4>5[2:1],6,{4}4/5,
{16},,,,,,,,2,3,{8}4,{4}2/6h[4:1],
,5/4,{16}6,5,6,5,{4}7<4[8:3],
8,1,2,3h[4:1],
{8}5,4,5/6,7,4q5[2:1]/5<4[2:1],3,{4}5/4,
{16},,,,,,,,6,7,{8}8,{4}7/2h[4:1],
,5/2,{8}6/4,6/4,{4}5/2>5[8:3],
1h[8:1],8,7h[8:1],8/6h[4:1],
{8}4,5,4/2,3,4/5,6,{4}7q8[8:3]/8>7[8:3],
{16},,,,,,,,2,1,,,{4}3h[2:1]/8>6[8:3],
{16},,,,,,,,4,5,{8}4,{16}7h[16:3],,,6h[16:3],
,,{8}5h[8:1],{16}2h[16:3],,,3h[16:3],,,{8}4h[8:1],{16}6h[16:3],,,5h[16:3],
,,{8}4h[8:1],{16}3h[16:3],,,4h[16:3],,,{8}5h[8:1],7,4,
5,{16}4,5,3,4,3,5,2,4,3,6,5,7,4,5,
3,5,4,6,4,5,3,6,4-8[8:1],5,2,7,{8}4b,6,
1-5[8:1],8,{4}1/7-3[8:1],{8}7-1[8:1],2,7-5[8:1],4,
7,2,{4}4/2-4[8:1],{8}2-8[8:1],7,2-6[8:1],5,
2,8,7/5,{16}6,5,{8}6,4,{16}5,4,3,2,
1,8,7,6,{4}5/3,{16}5-1[8:1],4,6,3,{8}5,2,
8-4[8:1],1,{4}8/2-6[8:1],{8}2-8[8:1],7,2-4[8:1],5,
2,7,{4}5/7-5[8:1],{8}7-1[8:1],2,7-3[8:1],4,
7,1,2/5,{16}3,4,{8}3,5,{16}4,5,6,7,
8,1,2,3,{4}4/6,{8}6/4,5/3,{4}4/7h[4:1],
{8}5,3h[4:1],,4,{4}6h[4:1],{8}5,2h[4:1],
,4,5/7,6,5/4,3,{4}4/2h[4:1],
{8}4,6h[4:1],,5,{4}3h[4:1],{8}4,5h[4:1],
,4,6,{16}6,7,8,1,2,3,{4}4/5h[4:1],
{8}4,3/6h[4:1],,5,{4}4/7h[4:1],{8}1,8/2h[4:1],
,1,{4}8/3h[8:1],1/6h[8:1],{8}3/8,2,
{4}7/1h[8:1],{8}6/8,5,{4}4/5h[8:1],{16}1,8,1,8,
2,5,3,4,1,7,1,7,2,6,3,5-1[8:1],,,,,,,,,{8}5/2,
3,4/7,6,5/2h[8:1],{16}1,3,
{8}7h[8:1],5,4/3,2,5/7,6,4/5,4/5,
{4}2/6,{8}4/7,6,5/2,3,4/7h[8:1],{16}8,6,
{8}2h[8:1],4,5/6,7,5/3,{16}3,4,{4}2h[4:1],
{16}5,5,4,4,{8}6h[8:1],3,4/7,6,5/2h[8:1],{16}1,3,
{8}7h[8:1],5,4/3,2,5/7,6,4/5,4/5,
{4}2/6,{8}4/3-7[8:1],5/2,,,5/6-2[8:1],4/7,
,,3/1,4/5,7/3,5/2,{16}3,4,2,5,
4,6,3,7,{4}1h[8:1],{8}5,4,6/2,7,
3/8h[8:1],2,5/6,7,4/3,2,{16}7,7,{8}5,
6/3,5,4/1,2,5,4,3/7,2,
{16}6,6,{8}1,4/2,3,5/6,7,{16}2,2,{8}4,
3/6,4,5/8,{16}6,5,{8}6,4/7,7/4,3,
6,5,4/2,{16}5,4,{8}5,6/3,6/3,3,
4,3,5/2,{16}4,3,{8}4,5/2,3/6,3,
4,2,{16}6,3,6,3,5,4,5,4,5,6,7,8,
1,2,3,4,{8}5h[8:1],{16}3,4,2,6,5,7,4,3,2,1,
7,6,5,4,{8}2h[8:1],{16}4,3,{8}7h[8:1],{16}5,6,3,4,2,2,
{8}8h[8:1],{16}1,8,2,1,2,8,3,7,4,6,1,8,1,8,
2,7,3,6,8,7,1,7,2,6,3,5,4,6,5,7,
3,4,2,2,7,5,6,4,5,3,5,4,5,6,7,8,
2,3,4,5,{8}7h[8:1],{16}5,6,{8}2h[8:1],{16}4,3,6,5,7,7,
{8}1h[8:1],{16}8,1,7,8,7,1,6,2,5,3,8,1,8,1,
7,2,6,3,1,2,8,2,7,3,6,4,5,3,4,2,
6,5,7,7,{4}4b,{8}2,8,3,7,
4,6,{12}2,4,2,6,4,6,3,4,3,
5,4,5,3b/6b,,,7,3,5,1,8,4,
6,2,7,{48}3,,,5,,,{16}4,6,3,4,2,5,3,6,4,7,
5,6,3,4,{4}2b,{8}8/2,3/7,4/6,5/3,
{16}6,4,7,3,{4}8b,{16}1,8,7,6,4/5,3,2,1,
{8}7,5/3,1b/7b,{16}2,6,3,5,4,6,3,7,2,6,
3,7,4,8,3<1[8:7],1,2,8,{2}3b,
{8},,,,5,5,3,2-6[8:3],
,,,,,,{4}1b-5[16:1]/7b-3[16:1],
E
