&title=流星群に会えた夏
&artist=黒魔
&first=3.45
&des=小white君
&lv_6=14
&inote_6=(181)
{8}1b>8[4:13]/E6,,,E5,,,E4,,,,,,,,,,E8,,,E1,,,E2,,,,,,
{16}1,2,3,4,5,6,7,8,
{8}E2/5h[1:2],,,E3,,,E4,,,,,,,,,,E6,,,E7,,,E8/5<4[4:10],,,,,,,,,,,,,,,,,,,,,,
{2}C,
{8}2b/5b,3,4,5/2,,3,4,5,4/7,6,5,4/7,,5,4,3,2-5[8:1]/5,,7,,
{8}6h[16:1],5,7V51[3:1],4,,3,3,,,4,3,2,1/8,
{16}7,8,7,,2,1,2,,
{8}8,7,6,,7/5,7/5,,,2,3,4,,
{16}6,5,6,,3,4,3,,6,5,7h[8:1],,
{8}1,
{16}2,3,4,5,6,7,8,1,2,3,4,5,6,7,8,1,2/6,,6,,
{8}3,5,,4,5,6,7/3,3,4,6,,5,4,3,2-5[8:1]/5,,4-7[8:1],,
{16}2,3,4x,,
{8}6,5,,
{16}3,5,4h[4:1],,,,,,6,,4,,7,,1/8,,2,1,2,,7,8,7,,6,,5,,4,,3/5,,3,4,2,,6,5,7,,8,,1,,2,,7/2,,3,4,2,,6,5,7,,4,,3,,
{8}2h[8:7]/4>6[8:5],,,,,,,,,1h[8:1],7,1h[8:1],5,1h[8:1],7,1h[8:1],4,1h[8:1],7,1h[8:1],3,1,8,7,6,
{8}5-3-6[4:1]/3,,1,1-4-2[4:1],,7,6,5,5b,
{16}3,4,2,6,5,7,1,8,2,7,3h[8:1],,,,
{8}5h[8:1],3,5h[8:1],1,5h[8:1],3,5h[8:1],8,5h[8:1],3,5h[8:1],7,5,4,3,2,1/8<6-2[4:1],,3,3<5-1[4:1],,8,7,6,6b,
{16}3,4,2,6,5,7,1,8,2,7,3h[4:1],,,,
{8}1b-5[4:3],,2h[8:1],,3h[8:1],,4h[8:1],,
{8}8-4[4:3],,7h[8:1],,6h[8:1],,5h[8:1],,1h[8:1],,2/8,2/8,,7,1,3/6h[4:1],,
{24}3,4,5,
{8}6,,7,8,1,2,7b/3b,7b-3[4:6]/3b,,,,,,,,,,,,,,,4x>4-1[8:7],,,,,,,,
{16}E8,E7,E6,,,,,,,,
{8}8,7,6,5bv2[6:1]/E1/E2/A1f/D1/D2,,3,4>1[4:1],,7,6,5,8x/4xv1[8:1],,2,3>8[4:1],,6,5,4,3x/7x-2[6:1],,4,4<7[8:1],
{16},,1,2,3,,
{8}8xp3[3:1]/4xp7[3:1],,,,,,
{8}1,2,3,4v7[6:1]/8,,6,5<8[4:1],,2,3,4,5,5,1,1,2,5,4,7,6/2,
{16}3,4,5,6,7,8,1,2,3,4,5,6,7,8,1b/5b,,1b-4[8:1]/5b-8[8:1],,,,,,,,
{8}8,7,6,5bv8[6:1]/1,,3,4>1[4:1],,7,6,5,8x/4xv7[8:1],,2,3>8[4:1],,6,5,4,3x/7x-2[6:1],,4,4<7[8:1],
{16},,1,2,3,,
{8}8xp2[3:1]/4xp6[3:1],,,,,,
{8}5,6,7,8/4,,2,1/5,,7,8/1,2/7,
{16}8,1,8,1,8,1,8,1,8-4[8:1],,2,,8,,1w5[8:13],,
{1}1b,,
{8}2,2,2,2,2/E5,2,2,2,3/E6,3,3,3,3/E7,3,3,3,7/E5,7,7,7,7,7,7,7,6/E2,6,6,6,6/E8,6,6,6,1/E5,1,1,1,1,1,1,1,1/8,1/8,2/7,2/7,3/6,3/6,
{16}4/5,6,7,8,1/4,,
{8}1/4,1-5[8:1]/4,,1/4,4-8[8:1],,4/7-5[8:1],,7/8,8-6-1[4:1],,5,5h[4:1],,,5/2,5/2,5-1[8:1]/2,,4/5,4q8[8:1],,4/2,,
{8}1/3,1/3-6[8:1],,E1/3,,,,
{8}4/7,4/7,4/7p3[8:1],,2,2v5[8:1],,2/8,,7,7V52[4:1],,1,1h[4:1],,,3/8,3/8,3/8p4[8:1],,8/1,1<6[8:1],,1/3,,2/5,2/5-1[8:1],,E4,
{8},,,1/4,1/4,1-6[8:1]/4,,1/4,4p8[8:1],,4/7-5[8:1],,7/8,8-6v1[4:1],,5,5h[4:1],,,5/2,5/2,5-1[8:1]/2,,4/5,4q8[8:1],,4/2,,
{8}1/3,3/1q4[3:1],,,,,,
{8}4/7,4/7,4/7-3[8:1],,2,2v5[8:1],,2/8,,7,7V52[4:1],,1,1h[4:1],,,3/8,3/8,3/8p4[8:1],,8/1,1<6[8:1],,1/3,,2/5,5/2qq5[2:1],,,
{8},,,,7/4,6/3,5/2-6[8:1],,2/4q8[8:1],,1/4,,7/2,7/2-4-1[4:1],,8,8h[4:1],,,7/1,7/1,7>3[6:1]/1,,4,4-1[8:1],,5,,8/7,8/7-2v5[3:1],,,,,,
{8}4/6,4/6,4/6>4-1[4:1],,,2,,3/8,,7/4,4-6-2[4:1]/7,,,8,,,1/7,1/7,1/7-1-4[4:1],,,3,,5b/3hb[8:5],
{12},,1,8,7,6,5h[2:1],,,,,,
{4}7b-3[2:13],8h[8:1],1h[8:1],2h[8:1],3h[8:1],4h[8:1],
{8}5,6,5,4,3,,1,1,,8,1,2h[8:5],,,,,,,,,
{4}1h[8:1],8h[8:1],7h[8:1],6h[8:1],5h[8:1],4h[8:1],
{8}5,4,5,6,7,,8,8,,1,8,7h[4:1],,
{16}2,3,4,5,6,7,8,1,2b,,8b/4b,,,,
{8}7/1,7,7/2,7,7/3,7,7/4,7,6/5,6,6/3,6,6/1,2,1/3,4,5/7-4[8:1],8,1/7,2,3,4/5,3/6,7,
{24}2/8,,,2,3,4,
{8}5/7b,6b,5b,4b,3b,2b,
{8}1bx/8bx,1bx-7-2-6-3-5<4[8:21]/8bx,,,,,,,,,,,,,,,,,,,,,,,
{24}E6,E7,E8,,,,,,,,,,,,,
{8}8,7,6,5bv8[6:1]/E4/E3/A3f/D4/D3,,7,6>3[4:1],,8,7,6,2x/5xv8[8:1],,2,3>8[4:1],,6,5,4,3x/7x-2[6:1],,4,4<7[8:1],
{16},,1,2,3,,
{8}8xp3[3:1]/4xp7[3:1],,,,,,
{8}1,2,3,4v7[6:1]/8,,6,5>2[4:1],,8,7,6,5,5,1,1,6,2,8,7,6/2,
{16}3,4,5,6,7,8,1,2,3,4,5,6,7,8,1b/5b,,1bv4[8:1]/5b-8[8:1],,,,,,,,
{8}8,7,6,5bv8[6:1]/1,,3,4<7[4:1],,1,2,3,8x/4xv7[8:1],,2,3>8[4:1],,6,5,4,3x/7x-2[6:1],,4,4<7[8:1],
{16},,1,2,3,,
{8}8xp2[3:1]/4xp6[3:1],,,,,,
{8}5,6,7,8/4,,2,1/5,,7,8/2,3/7,
{16}8,1,8,1,8,1,8,1,8-4[8:1],,2,,8,,1,,
{1}2bq8[4:6]/8b<2[4:6],,
{4}4/6,E2,5/3,E8,4/6,E2,
{12}2,4,3,5,,,
{4}5/6,E2,4/3,E1,4/6,E2,2/4,E8,4/6,E2,5/3,E8,5/6,E2,
{12}2,4,3,5,,,
{4}7-3[4:1],4,2-5[4:1],8,6<1[4:1],3,5-2[4:1],6,4<7[4:1],2,5-1[4:1],8,4>8[4:1],8<4[4:1],
{12}3,2,1,8,,,
{4}6-2[4:1],1,3-8[4:1],5,7<4[4:1],2,8-3[4:1],7,1<6[4:1],3,8-4[4:1],5,1>5[4:1],5<1[4:1],
{12}2,3,4,5h[24:8],,,
{12},3b,2,1,8,7,
{6}6/2,3/7,4/8,
{8}1/5,,3,2,1/7V51[4:1],,1,2,3<5-2[4:1],,6,7,8-4[8:1],,2/8,,5-2[8:1],,3/5,,
{12}1/4,8,7,6/1,,,
{8}3v8[6:1]/5,,6,,7-4[8:1],,1/7,,
{16}2,3,4,5,8,7,6,5,
{6}4/3,2/5,1/6,
{2}7bz3[2:4]/8bs4[2:4],,,,,,,4x-1[4:5]/5x-8[4:5],,,,,,,,,,,,
{8},1,2,3,4/5h[4:3],,B3,B2,,4,B8,,5/4h[4:3],,B6,B7,,5,B1,,3/5h[4:3],,B3,B2,,3,B8,,6/4h[4:3],,B6,B7,,6,B1,,
{8}4/5h[4:3],,B3,B2,,4,B8,,5/4h[4:3],,B6,B7,,5,B1,,
{16}1/8,2,3,4,5,6,7,8,1/5,6,7,8,1,2,3,4,
{8}5/1b,1b<6[8:1]*>4[8:1],,1b,,3,2,1,8/7,7,7/6,7,7/1,7,7/5,7,2/8,2,2/5,2,2/1,2,2/4,2,
{8}8/1,8,8/7,8,8/2,8,8/6,8,8/3,4,5/6,7,1/8,2,3/4,5,6/1,2/7,8,1/2,3/8,4,3/5,4/6,
{8}2b/8b,
{8}3b/7b-3[1:1],,,,,,,,,,,,,,,
{4}8x>3[8:1],4x<7[8:1],1x>4[8:1],5x<8[8:1],2x>5[8:1],6x<1[8:1],3x<6[8:1],7x-3b[8:1],,,
{8},8,7,6,
{16}2b/5b,,3,,4/6,,8,1,7-4b[8:1],,1v6[8:1],,7,,1,,8x,,8,,7/1,,2,1,3-7b[8:1],,4-8[8:1],,3,,4,,1h[16:2],,,,2/8,,2/8,,3,,5,4,6,,
{4}3/7qq2[3:1],,,
{8}4,3,2,
{16}7b/1b,,6,,5/3,,1,8,2>3-5b[8:1],,8-4[8:1],,2,,8,,1,,2,1,3,,7,8,6,,4/5,,3/6,,2/7,,
{16}1,8,7,6,8,7,6,5,2,3,4,5,1,2,3,4,1b/5b,,1b-4[8:1]/5b-8[8:1],,,,,,,,
{8}4,3,2,
{16}6/1,,7,,8/2,,4,5,2-5b[8:1],,5-1b[8:1],,2,,6,,7,,8,,1/7,,2,1,3-5b[8:1],,5v8b[8:1],,6,,7,,6h[16:2],,,,6/1,,6/1,,7,,1,8,2,,
{8}7/3>1[8:1],4,
{16}7,6,5,,8hx[8:1]/4hx[8:1],,,,1/5,,2/6,,3/7,,4>1[8:1]/6,,5,,4/6,,7h[4:1],,8,,1,,2/7,,3/6,,
{16}1,8,1,8,1,8,1,8,1-5[8:1],,7,,1,,8,,
{8}7b<4[8:1]/1,7,3>8[8:1],3,5,5,1/6,2/7,8>3[8:1]/3,,6/8-5[8:1],,2/8w4b[6:1],,,,2/7,
{16}3,5,4,6,5,7,6,7,5,7,4,7,3,7,2,1,8,7,6,5,4,3,
{32}2b/6b,5,4,3,2,1,8,7,
{8}A6/E6/A5/D6f,,3/4,
{16}2/4,,,2/8,,,6-3[16:1]/8,,,4-1[16:1],,,2x-7[16:1],,2x,,,4x-7b[16:1],,,2x-5b[8:1],,1b,,2b,,8b,,,,
{16}8,7,6,5,1,8,7,6,2,1,8,7,3,2,1,8,5/7,,5-8[8:1]/7>2b[8:1],,,,E7/B7/E8f,,,,,,,,,,
{16}2-5[8:1]/4,,3,,2/5,,6,,7/4,,8,,1/2,,3/8,,4/7-4[8:1],,6,,3-8[8:1],,2,,5w1b[6:1],,,,,,,,
{16}7,6,5,4,2,3,4,5,E7,E8,E1,E2,A3,A4,A5,A6,
{8}8,1,2/7,5,4/6,3,2/5,1/6,7-2[8:1]/8,,5,5<8[5:1],,4/5,3,2,
{16}1,8,1,8,1,8,1,8,1,8,1,8,1,8,1,8,1b,8b,1b,8b,1b-5[8:1],8b,1b,8b,1bx,,8x[8:1],,4xw8b[6:1],,6,,
{8}4b>5p3[4:15]/E5/E4/B4f,,Ch[4:15],,,,,,
{1},,,
{2},
{24}7,6,5h[24:28],,,,,,,,,,
{4},,,
{24}1b,,,1b,,,,,,,,,E7,E6,E5,,,,,,,,,,
