&title=Kaleidoscope
&artist=Lycoris vs. Pied d'Alouette
&first=0
&des=蔷薇园漫步
&clock_count=4
&lv_5=14+
&inote_5=(150){1},
{8}1b>4[8:1]/8b<5[8:1],,,,,3b/6b,,{16},2b/7b,,2b>8[16:5]/7b<1[16:5],{8},,,,,,,
1b>4[8:1]/8b<5[8:1],,,,2b/7b,2b/7b,{16},4b/5b,,{2}4b>1[8:1]/5b<8[8:1],4b<7[8:1]/5b>2[8:1],{16},
1b/8b,,3,4,2,4,3,4,3,3,8b,,6,5,6,1b,,1b/8b,,2,1,3,1,2,2,,7,8,6,8,7,7,
1b,,6,5,7,5,6,6,2b,,2b/7b,,,4b/5b,,4b/5b,,2,1,2,1,2,,3b/8b,,7,8,7,8,7,8,,
1b/6b,,7/8,7/8,,1/2,1/2,,2/4,,5/7,,2,2/8,,7,1/7,,4b/5b,,1/3,1/3,,6/8,6/8,,5/6,,3/4,,6,6/8,,3,1/3,,
{48}1b>8[4:7]/8b<1[4:7],2/7,3/6,{16}4/5,,,{4},,,{1},
,{2}3b>8[8:1]/4b,5b/6b<1[8:1],
{1}4b>5[2:3]/5b<4[2:3],,
{16}4,5,4,5,4,5,4,5,4,5,4,5,4,5,4,5,3b/6b,,7,8,7,8,7,8,1b/6b,,2,1,2,1,2,1,
3b/8b,,7,8,,6,5h[8:1],,7p4[4:1],4,7,4,7,,,,1,,2,1,,3,4h[8:1],,3p1[4:1],5,3,5,3,,,,
8,,7,1,,6,5,,2,8,,3,4,,,2b>5[8:1]/6b,,,8,,8,,,4b/7bq4[8:1],,,2,,,2,,,
6b/1b,,7,8,6,1,5h[8:1],,2q5[4:1],4,3,4,2,,6,,8,,2,1,3,8,4h[8:1],,6q8[4:1],5,7,5,6,,3,,
1,,7,8,7,6,7,,2,1,2,3,2,,,4b/5b<8[8:1],,,1,,1,,,2bq6[8:1]/6b,,,,,8b,,,,
{8}4b/7b<4[2:1],,4,4,3,3,2,2,{16}1/4h[16:3],,,5h[16:3],,,6,,{8}8q4[8:1],8,1,,
2b>5[2:1]/5b,,5,5,6,6,7,7,{16}5b/8h[16:3],,,7h[16:3],,,6,,{8}8<5[8:1],1,2,,
2b/4b,2/4,3/5,3/5,4b/6b,5,6,7,{16}8/5h[16:3],,,4h[16:3],,,3,,{8}1p5[8:1],1,8,,
7b<4[2:1]/4b,,4,4,3,3,2,2,{16}1b/4b,,3,5,4,5,3,,7,1,8,1,{4}7,
{8}6h[8:3],5,4,3,3h[8:3],4,5,6,7,{16}7,8,{8}7h[4:1],6,5<8[8:1],4,3,,
{8}3h[8:3],4,5,6,6h[8:3],5,4,3,2,{16}2,1,{8}2h[4:1],3,4>1[8:1],5,6,,
{16}4/6,,7,8,7,,1,,3/5,,2,1,2,,8,,5/6,,7,8,7,,1,,3/4,,2,1,2,,8,,
{8}1b>4[8:1]/8b<5[8:1],,,,,3b/6b,,{16},2b/7b,,2bp6[8:1]/7bq3[8:1],{8},,,,4b/5b,,,
1b>4[8:1]/8b<5[8:1],,,,2b/7b,2b/7b,{16},4b/5b,,{2}4bq8[8:1]/5bp1[8:1],4bqq2[8:1]/5bpp7[8:1],{16},
8b/1b,,6,5,7,3,4,2,6,5,8b,,3,3,4,1b,,8b/1b,,7,8,6,2,1,3,8,1b,,7,8,6,1,
8b,,3,4,2,6,5,7,2b,,7b/2b,,,5b/4b,,5b/4b,,6,5,6,5,6,,4b/5b,,3,4,3,4,3,,
4b/6b,,7,5,7,5,7,,3b/5b,,2,4,2,4,2,,4b/6b,,7,5,8,5,8,,3b/5b,,2,4,1,4,1,,
1h[8:1]/5,,7h[16:3],8,,2h[16:3],1,,5,4b/6h[4:1],,,,5,4,3,2,
{8}1/7b<4[8:1],,1q5[8:1]/7,2,1/6<8[8:1],7,4/6,3,1/2,{24}2,3,4,{8}5/7p3[8:1],8,1h[4:1]/7,,{16}4,5,6,7,
{8}2>5[8:1]/8,,2/7p3[8:1],8,1>4[8:1]/7,2,1/8<5[8:1],7,8bp4[8:1]/3,{24}2,3,4,{8}8b>3[8:1],2,1/8b,,{16}6/1b,2,3,4,
{8}5/7bp4[4:1],,7/8,1,2q5[4:1],,2/1,8,7,{24}7,6,5,{8}2q6[8:1]/4,1,2/8h[4:1],,5,4,
3b/5,2,1/2,{16}2,3,{8}4/6b,7,7/8,{16}7,6,{8}3b/5,1,4/6b,8,4b/5b,4/5,3/6,3/6,
{16}2b,1,4,5,8,7,1,6,8,7,4,5,2,1,3,8,2,1,{24}3,4,3,{16}6p5[4:1],4,6,5,6,,,,4,3,2,1,
7,8,5,4,1,2,8,3,1,2,5,4,7,8,6,1,{8}7b/8h[8:1],{24}7,6,5,{8}4h[8:1]/3b,3,8h[8:1]/2b,2,{16}4h[8:1]/5b,6,7,8,
2b,1,2,1,3,4,2,5,8,7,8,7,5,6,4,7,2,1,{24}3,4,3,{16}6p4[4:1],4,6,5,{8}6,,1,2,
3b/5,2,1/2,{16}2,3,{8}4/6b,7,7/8,{16}7,6,{8}3b/5,1,3/6,8,{24}8/1b,7,6,1,2,3,7,6,5,2,3,4,
{8}5/6b,7,7/8,{16}6,5,{8}3b/4,2,1/2,{16}3,4,{8}5/6b,8,7/2,1/8,{32}1/8b,2,3,4,8,7,6,5,8,7,6,5,1,2,3,4,
{48}1b/5b,2/6,3/7,{16}4h[16:14]/8h[16:14],,,{4},,,,,{8},3b/6b,,,
1b>4[8:1]/8b<5[8:1],,,,2b/7b,2b/7b,{16},4b/5b,,{2}4b>1[8:1]/5b<8[8:1],4bqq2[8:1]/5bpp7[8:1],{16},
1b/8b,,6,5,6,4,5,4,6,5,8b,,4,4,5,1b,,1b/8b,,3,4,3,5,4,5,3,8b,,3,4,3,5,
1b,,6,5,6,3,4,3,7b,,2b/7b,,,4b/5b,,4b/5b,,3,4,3,4,3,,4b/5b,,6,5,6,{32}1,2,3,4,8,7,6,5,
{16}3b,4,3,5,1,6,4,8,3,7,5b,6,2,4,3,8b,1,8b,4,6,1,5,3,8,4,6,5b,7,3,4,2,8,
1b,5,2,4,1,7,5,8,2b,4,2b,6,1,8b,4,4b/5h[8:1],,3,4,2,4,3,5,5b/4h[8:1],,6,5,7,5,6,4,5,
4/5b,4,6,2,2/8,7,1/6,2,3/7,6,5/2b,3,4,5/7,6,1b,8,1b,5,3,8,4,6,1,5,3/5,3b,8,4,6,1,1/8,
8b,4,7,5,5/6,6,2,4,1b,8,1b,6,3,8b,4,4b/5h[8:1],,3,4,3,4,3,5,5b/4h[8:1],,6,5,6,5,6,4,4b/5h[8:1],
,2,4,2,4,2,5,5b/4h[8:1],,7,5,7,5,7,4,3b/5h[8:1],,1,4,1,4,1,5,6b/4h[8:1],,8,5,8,5,8,4,3b/6b,
,1/2,1b/3b,,7/8,6b/8b,,1/8,3b>5[4:1]/6b<4[4:1],
