&title=Sincerely
&artist=TRUE/TVアニメ「ヴァイオレット・エヴァーガーデン」OPテーマ
&first=0.61
&des=Ragna
&wholebpm=72
&demo_seek=50.6
&demo_len=12.4
&des_5=Ragna
&lv_5=12+
&inote_5=(72){16},
3,4,5,6h[16:5],,,,,
2,3,4,5h[16:5],,,,,
3,4,5,6h[16:5],,,,,
4,5,6,7h[16:5],,,,,
5,4,3h[16:6],,,,,,
7,6,5,4h[16:5],,,,,
6,5,4,3h[16:5],,,,,
4h[8:1],,5h[8:1],,7h[16:3],,,,
3q5[32:7],4,5,6,3,,,,
7p6[32:7],6,5,4,7,,,,
4q5[32:7],5,6,7,4,,,,
6h[8:1],,5h[8:1],,4h[8:1],,3h[8:1],,
6,5,4,3,7,6,4,3,
8,7,4,3,1/2b,1b/2,,,
3>7[32:5],,6,6<4[32:7],,,4,4,
,,6pp3[8:3],6,,5,5,,
,,,,,,,3qq4[16:3],
3,,4pp4[16:3],4,,7,7h[16:5],,
,,,3,4,5,6,6h[16:3],
,,2qq6[8:3],2,,4,4,,
,,,,,,8,8h[8:1],
,2,3,4,5,6,7,1^4[8:1],
1,,6,6h[16:3],,,5s1[32:7],5,
,,8,8h[16:4],,,,2,
2h[16:3],,6pp4[32:15],6,,,5qq4[32:7]*qq4[32:7],5b,
,,,,,,,,
45,,,,,,,,
45,,,,18,27,36,45,
3h[16:3],,4,7h[16:3],,5,1^4[16:1],,
4,,18,,{24}6,5,7,{16}2,18,
1>5[8:1]/8,,4/5<1[8:1],,18,,6bpp4[32:7]*pp4[32:7],,
,,3,3h[16:4],,,,5,
5h[16:2],,1pp1[16:3],1,,8,8,,
5w1[32:3],,4,,,,,81,
8<4[8:1]/1,,5/4>8[8:1],,81,,2bqq4[32:7]*qq4[32:7],,
,,6,6h[16:4],,,,5,
5h[8:1],,7,7>3[16:3],,,3>7[16:3],3bv5[8:1],
,,,,,,,18,
1>5[8:1]/8,,4/5<1[8:1],,18,,8bpp6[32:7]*pp6[32:7],,
,,4,4h[4:1],,,,5,
5h[8:1],,3qq8[4:1],3,,,6,5,
4w8[32:3],,5,,,,,81,
1h[4:1]/8,,4,5,6h[4:1],,5,4,
3h[4:1],,4,5,7h[4:1],,5,4,
2h[4:1],,4,6,8h[4:1],,5,3,
1bw5[8:1],,,,,,,,
45,,,,,,,,
4/5>5[2:1],,,,1b,,,,
4h[64:33],,,,,,,,
(70){16}6h[4:1],,,,(60){16}5h[8:1],,4h[8:1],,3h[8:1],,
(55){16}4h[8:1],,(45){16}5h[8:1],,
{1}6b-3[4:1],
E
