&title=Static feat. Hastune Miku
&artist=FLAVOR FOLEY
&first=0.037
&lv_5=13.8
&des_5=nomiko
&inote_5=
(190){4},,,,{1}E4/E3/B3/Cfh[32:1],
E7/E8/B7/Cfh[32:1],
{4}B3/E8/A3/B8f/D8/B7/E4,E2/E6/B6f/B2/E7/E3/D7,E4/B8/B4f/A4/D4/A8/D8,E6/E3/B6/B2f/D3/A2/E7,
B5/B1f/E2/E6/D1/D6/A1,E4/B8/E8f/B7/A7/A4/A3,{8}7bx/3xh,2bx/6xh,5bx/1xh,8bx/4xh,
{4}4x<7[8:1],3,4x>1[8:1],5,
4x-7[8:1],3,4x-1[8:1],5,
4xq8[8:1],3,4xp8[8:1],5,
{8}4xqq7[8:3],,,3x,,5x,,,{4}5x>2[8:1],
B8/E8/B7,5x-8[8:1],E4/B3,
5x-2[8:1],E8/B7,5x<8[8:1],B3/E3/B2,
5x>2[8:1],B8/E8/B7,5x-8[8:1],E4/B3,
{8}5xpp2[8:3],,,7x,,4x,,,{4}4x<8[8:1],
1,5x>1[8:1],8,
4xV68[8:1],1,5xV31[8:1],8,
4x<8[8:1],1,5x>1[8:1],8,
{8}4pp2[8:3],,,3x,,5x,,,{4}5x>1[8:1],
B1/B2/E2,5x<1[8:1],B8/E8/B7,
4xV28[8:1],B6/E7/B7,4xV68[8:1],B2/E2/B1,
5x>1[8:1],B2/B3/E3,5x<1[8:1],B8/E8/B7,
{8}4pp3[8:3],,,8x,,6x,,,5,
1,5,2,{4}6<1[8:1],6x/3xh[8:1],
{8}3xh[8:1],8,{4}7,7bx/1x>5[4:1],5x<7[8:1],
8,2bx/8x<4[4:1],4x>2[8:1],1,
{8}1x,5,1,6,{4}1>4[8:1],1x/7h[8:1],
{8}5xh[8:1],6,{4}7,{8}7h[16:1],{16}3xh,4,{8}3,{16}2xh,6xh,
5,7xh,{8}6,{4}1>4[8:1],7,1<6[8:1],
3,1-4[8:1],7,1-6[8:1],
3,1h[1:2],C,B2,
B3,B4,B5,E3,
E4,E6f/B6/B5,,,1xw5[8:1],
1x,,,1,
2>5[2:1],,5<8[2:1],
,8>3[2:1],,4,
5<8[4:1],4,5>2[4:1],6,
5q7[2:1],4,,,1,
2>4[2:1],,4-6[2:1],
,8<6[2:1],,6-4[2:1],
,1h[2:1],,3,
,E6/E2,,E4/E8,
2>8[2:1],1x,,5h[2:1],
,1b,,2,
2-5[8:1],1x,7-4[8:1],8x,
2-6[8:1],5b,,4,
4,{12}7x,,5h[12:1],,6h[6:1],,2x,,4h[12:1],
,3h[6:1],,8x,,5h[12:1],,7h[6:1],,1x,,4h[12:1],
,2h[6:1],,{4}7b,{16},,,,,,,,,,,,1,
8,1,8,1,8,1,8,2,7,2,7,
2,7,2,7,1x,8x,2x,7x,1xh,8xh,2xh,7xh,{32}1xh,2,3,4,5,6,7,8,
{8}1bx,2xV83[4:1],,6x,5,7V53[4:1],,2x,
1>3b[8:1],8,{4}4/1<7b[8:1],5/1-3b[8:1],{8}6x/1x-7b[8:1],7x-3b[8:1],
1bx/6x,5x-1[8:1],,5x,{4}3x-8[8:1]*-6[8:1],3xq5b[8:3],
3b,6-1[8:1]*-2[8:1],6x>8b[8:1],6x,
{8}6x,5x/8xV26[4:1],,4x,5,4xV68[4:1],,2x,
1,3x<5[8:1],,7/3-8[8:1],8,3,{4}7x-5[8:1]*-4[8:1],
7bx-2[8:1]*-1[8:1],7bxV52b[4:1],2bxV47b[4:1],1,
3bxh[2:1],8x>5b[8:1],8b,{8}1<6[8:1],2,
{4}3x,{8}4,5w1b[8:1],,5b,,7V52[8:1],
3h[4:1],7>2[8:1]*q3[8:1],,7x,,6,5<8b[8:1],2,
5x/3x,2V46[8:1],,2,8xh[8:1],7x,8,1,
2/6,{16}4x,5,{8}3h,{16}1x,2,8x-3b[8:1],7,6,5,{4}8b/4qq7[4:1],
{8},,1,2x-6[8:1]*-5[8:1],,2x<4[2:1],,3,
2,1,8,7,{16},,7x,8x,{4}1x-4[8:1],
{8}1x/7x,6,,7,{24}8x/6x,1,2,3,,,2x/8xw4b[8:1],7,6,5,,,{1}8bx,
{6}1x/8x,1x/8x,8x/1x,4x/2x,4x/2x,2x/4x,
4x/5x,4x/5x,5x/4x,6x/8x,6x/8x,8x/6x,
{16}1x/8x,{32},,,,1x,2x,{16}3x,{32},,,,8x,7x,{16}6x,{32},,,,2x,3x,{16}4x,{32},,,,7x,6x,
5x,B2,B3,B4,B5,B6,B7,B8,B1,B2,B3,B4,B5,B6,B7,B8,E2,E3,E4,E5,E6,E7,E8,E1,E2,E3,E4,E5,E6,E7,E8,E1,
D2,D3,D4,D5,D6,D7,D8,A1,A2,A3,A4,A5,A6,A7,A8,A1,D3,D4,D5,D6,D7,D8,{16}D1,{1},{4},{8},2xh[4:3],
{24},,{6}E8,E7,E6,Ch[4:9],
{1},,{12},3xh[24:55],
{1},{48},{16}8xh[16:19],
{1},{4},,{16},,,2x/7x,
,,,,,,,,{2}1x/6xh[16:9],
{24},,,,,,8x,7x,6x,5x,4x,3x,2x,1x,,{8}8bxh[8:9]/6bxh[8:9],,,,,,,,,,,{4}5bx/8bx,
{16}6bx/1bx,,,7bx/2bx,,,{8}3bx,{16},8bxh[16:5]/4bxh[16:5],{1},{4},,{8},{2}2x,
{16},3x/B7/E7/E8,,,,,,,,,,,,,,,,,,7x/E4/B3/E3,
,,,,,,,,,,,,,,,,,1xqq6[16:19]/5xqq2[16:19],
{1},,,{8},5xh[8:1]/1xh[8:1],
,,3/7,
4xh[8:1]/8xh[8:1],,,3/7,{4}2xh[8:1]/6xh[8:1],5x/1>4[8:1],
1x/5-7[8:1],5x/2-6b[8:1],{8}8b/2b,,,7,
{4}2V46[4:1],6>1[2:1],{2}7h[2:1],
{8},,,,7x/1x,3/5,,6/2,
1xh[8:1]/7xh[8:1],,,6/2,5xh[8:1]/3xh[8:1],,,4>8[8:1],
6,4,{4}7,6-1[8:1]*-8[8:1],6V42[4:1],
6,7,{16}1h,8h,1h,8h,1h,8h,1h,8h,
{24}1bx<6b[8:1],2bx,3bx,4bx,,,{4}1x/5xp1[8:1]*>2[8:1],{8},,6,5w1b[8:1],
,5b,,7V52[8:1],3,7>2[8:1]*q3[8:1],1,7xh,
,6h,5<8b[8:1],2,3xh/5xh,2V46[8:1],,2x,
8h[8:1],7,8,1,2/6,{16}4xh,5,{8}3b,{16}1x,2,
8x-3b[8:1],7h,6h,5h,{4}8b/4qq7[4:1],4x,{8}1h,2-6[8:1]*-5[8:1],
,2<4[2:1],,3,2,1,8,7,
{16},,7x,8,{4}1-4[8:1],{16}1/7,6,{8}5,,7,
{24}6xh/8xh,1,2,3,,,2xh/8xw4b[8:1],7,6,5,,,{2}8bx,
{24},,,,,,5bxp1[8:1]*>2[8:1],6x,7x,8x/3x,,,{4}5bx,{8}6,5w1b[8:1],
,5b,,7xV52b[8:1],3,7x>2[8:1]*q3[8:1],1,7xh,
,6h,5<8b[8:1],2/4,3xh/5xh,2V46b[8:1],1,2x,
8h[8:1],7,8,1,6h/2h,{16}4xh,5,{8}3b,{16}1x,2,
8bx-3b[8:1],7h,6h,5h,{4}8b/4qq7b[4:1],4xh,{8}1h,2x-6[8:1]*-5[8:1],
,2x<4b[2:1],,3,2,1,8,7,
{16},,7h,8,{4}1-4b[8:1],{16}1h/7h,6,{8}5,,7,
{24}6xh/8xh,1xh,2xh,3xh,,,2xh/8xw4b[8:1],7xh,6xh,5xh,,,{4}8bx,8bx-6[8:1]*-5[8:1],
8bxV24[8:1]*-3[8:1],8bx,{32}8bx,7x,6x,5x,{8}4x,,7,
{4}8xV24[8:1]*-3[8:1],8x>7b[4:1],{8}8bx,,,4bx>2b[8:1],
{32},,,,,,,,,,,,,,,,1bx,2x,3xh,4x,{8}5x,,2h,
{4}1V75[8:1]*-6[8:1],1x<2[4:1],{8}1x,,,5x<7[8:1],
{32},,,,,,,,,,,,,,,,8bx,7xh,6x,5xh,{8}4xh,,7h,
{4}8V24[8:1],8>7[4:1],{8}8h,,,4>2[8:1],
,,,,{2}1bxh[2:7]/5xh[2:7],
E
&lv_7=14.0?
&des_7=nomiko
&inote_7=
(190){4},,,,{1}E4/E3/Cfh[8:0],
E7/E8/Cfh[8:0],
{4}B3/E8/A3/B8f/D8/B7/E4,E2/E6/B6f/B2/E7/E3/D7,E4/B8/B4f/A4/D4/A8/D8,E6/E3/B6/B2f/D3/A2/E7,
B5/B1f/E2/E6/D1/D6/A1,E4/B8/E8f/B7/A7/A4/A3,{8}7bx/3xh,2bx/6xh,5bx/1xh,8bx/4xh,
{4}4x<7[8:1],3,4x>1[8:1],5,
4x-7[8:1],3,4x-1[8:1],5,
4xq8[8:1],3,4xp8[8:1],5,
{8}4xqq7[8:3],,,3x,,5x,,,{4}5x>2[8:1],
B8/E8/B7,5x-8[8:1],E4/B3,
5x-2[8:1],E8/B7,5x<8[8:1],B3/E3/B2,
5x>2[8:1],B8/E8/B7,5x-8[8:1],E4/B3,
{8}5xpp2[8:3],,,7x,,4x,,,{4}2/4x<8[8:1],
1,1/5x>1[8:1],8,
4xV68[8:1],1,5xV31[8:1],8,
2/4x<8[8:1],1,1/5x>1[8:1],8,
{8}4pp2[8:3],,,3x,,5x,,,{4}8/6x>2[8:1],
B1/B2/E2,1/4x<8[8:1],B8/E8/B7,
5xV31[8:1],B7/E8/B8,5xV71[8:1],B3/E3/B2,
8/6x>2[8:1],B2/B3/E3,1/4x<8[8:1],B8/E8/B7,
{8}4pp3[8:3],,,8x,,6x,,,5,
1,5,2,{4}6<1[8:1],6x/3xh[8:1],
{8}3xh[8:1],8,{4}7,7bx/1x>5[4:1],5x<7[8:1],
8,2bx/8x<4[4:1],4x>2[8:1],1,
{8}1,5,1,6,{4}1>4[8:1],1x/7xh[8:1],
{8}5xh[8:1],6,{4}7,{8}7h[16:1],{16}3xh,4,{8}3,{16}2xh,6xh,
5,7xh,{8}6,{4}1>4[8:1],7,1<6[8:1],
3,1-4[8:1],7,1-6[8:1],
3,1h[1:2],C,B2,
B3,B4,B5,E3,
E4,E6f/B6/B5,,,1xw5[8:1],
1x,,,1,
2>5[2:1],,5<8[2:1],
,8>3[2:1],,4,
5<8[4:1],4,5>2[4:1],6,
5q7[2:1],4,,,1,
1-5[2:1],,5<8[2:1],
,8-4[2:1],,4>1[2:1],
,7h[2:1],,8,
,E6/E2,,E4/E8,
2>8[2:1],1x,,5h[2:1],
,1b,,2,
2-5[8:1],1x,7-4[8:1],8x,
2-6[8:1],5b,,4,
4,{12}6x,,4,3-7[6:1],5,,3x,,5,
6q2[6:1],4,,6x,,4,3>8[6:1],5,,3x,,5,
6w2b[4:1],4,,{4}6bx,{16},,,,,,,,,,,,1x,
8x,1x,8x,1x,8x,1x,8x,2x,7x,2x,7x,
2x,7x,2x,7x,1x,8x,2x,7x,1xh,8xh,2xh,7xh,{32}1xh,2,3,4,5,6,7,8,
{8}1bx/5xh,1V73[4:1],,5x,4,6V42[4:1],,2x,
1>4b[8:1],8,{4}5/1x<6b[8:1],{8}5/1x-4b[8:1],4,5x/1x-6b[8:1],6x-2b[8:1],
1bx/5x,4x-8[8:1],,4,3x-8[8:1]*-6[8:1],6/2,{4}3xq5b[8:3],
3b,6-1[8:1]*-2[8:1],6x>8b[8:1],6x,
{8}6x,5/8V26[4:1],,4x,5,4V68[4:1],,2x,
1,2-8[8:1],,7/2>5[8:1],5,2,6x-1[8:1]*-8[8:1],4,
{4}6bx-2[8:1]*-3[8:1],6bxV41b[4:1],1bxV35b[4:1],8,
2bxh[2:1],7x>4b[8:1],7b,{8}1<6[8:1],2,
{4}3x,{8}4,5w1b[8:1],,5b,,7V52[8:1],
3h[4:1],7>2[8:1]*q3[8:1],,7x,,6,5<8b[8:1],2,
5x/3x,2V46[8:1],,2,8h[8:1],7,8,1,
2/6,{16}4x,5,{8}3h,{16}1x,2,8x-3b[8:1],7,6,5,{4}8b/4qq7[4:1],
{8},,1,2-6[8:1]*-5[8:1],,2b<4[2:1],,3,
2,1,8,7,{16},,7x,8x,{4}1x-4[8:1],
{8}1/7,6,,7,{24}8x/6x,1,2,3,,,2x/8xw4b[8:1],7,6,5,,,{1}8bx,
{6}1x/8x,1x/8x,8x/1x,4x/2x,4x/2x,2x/4x,
4x/5x,4x/5x,5x/4x,6x/8x,6x/8x,8x/6x,
{16}1x/8x,{32},,,,1x,2x,{16}3x,{32},,,,8x,7x,{16}6x,{32},,,,2x,3x,{16}4x,{32},,,,7x,6x,
5x,B2,B3,B4,B5,B6,B7,B8,B1,B2,B3,B4,B5,B6,B7,B8,E2,E3,E4,E5,E6,E7,E8,E1,E2,E3,E4,E5,E6,E7,E8,E1,
D2,D3,D4,D5,D6,D7,D8,A1,A2,A3,A4,A5,A6,A7,A8,A1,D3,D4,D5,D6,D7,D8,{16}D1,{1},{4},{8},2xh[4:3],
{24},,{6}E8,E7,E6,Ch[4:9],
{1},,{12},3xh[24:55],
{1},{48},{16}8xh[16:19],
{1},{4},,{16},,,2x/7x,
,,,,,,,,{2}1x/6xh[16:9],
{24},,,,,,8x,7x,6x,5x,4x,3x,2x,1x,,{8}8bxh[8:9]/6bxh[8:9],,,,,,,,,,,{4}5bx/8bx,
{16}6bx/1bx,,,7bx/2bx,,,{8}3bx,{16},8bxh[16:5]/4bxh[16:5],{1},{4},,{8},{2}2x,
{16},3x/B7/E7/E8,,,,,,,,,,,,,,,,,,7x/E4/B3/E3,
,,,,,,,,,,,,,,,,,1xqq6[16:19]/5xqq2[16:19],
{1},,,{8},5xh[8:1]/1xh[8:1],
,,3/7,
4xh[8:1]/8xh[8:1],,,3/7,{4}2xh[8:1]/6xh[8:1],5x/1>4[8:1],
1x/5-7[8:1],5x/2-6b[8:1],{8}8b/2b,,,7,
{4}2V46[4:1],6>1[2:1],{2}7h[2:1],
{8},,,,7x/1x,3/5,,6/2,
1xh[8:1]/7xh[8:1],,,6/2,5xh[8:1]/3xh[8:1],,,4>8[8:1],
7,4,{4}7,6-1[8:1]*-8[8:1],6V42[4:1],
6,7,{16}1xh,8xh,2xh,7xh,1xh,8xh,2xh,7xh,
{24}1bx<6b[8:1],2bx,3bx,4bx,,,{4}5xp1[8:1]*>2[8:1],{8},,6,5w1b[8:1],
,5b,,7V52[8:1],3,7>2[8:1]*q3[8:1],1,7xh,
,6h,5<8b[8:1],2,3xh/5xh,2V46[8:1],,2x,
8h[8:1],7,8,1,2/6,{16}4xh,5,{8}3b,{16}1x,2,
8x-3b[8:1],7h,6h,5h,{4}8b/4qq7[4:1],4x,{8}1h,2-6[8:1]*-5[8:1],
,2b<4[2:1],,3,2,1,8,7,
{16},,7x,8,{4}1-4[8:1],{16}1/7,6,{8}5,,7,
{24}6xh/8xh,1,2,3,,,2xh/8x-4b[8:1],7,6,5,,,{2}8bxpp6[4:1]*pp5[4:1],
{24},,,,,,5bxp1[8:1]*>2[8:1],6,7,8/3x,,,,,,,,,{8}6,5w1b[8:1],
,5b,,7xV52b[8:1],3,7x>2[8:1]*q3[8:1],1,7xh,
,6h,5<8b[8:1],2,3xh/5xh,2V46b[8:1],,2x,
8h[8:1],7,8,1,6h/2h,{16}4xh,5,{8}3b,{16}1x,2,
8bx-3b[8:1],7h,6h,5h,{4}8b/4qq7b[4:1],4xh,{8}1h,2x-6[8:1]*-5[8:1],
,2bx<4b[2:1],,3,2,1,8,7,
{16},,7h,8,{4}1-4b[8:1],{16}1h/7h,6,{8}5,,7,
{24}6xh/8xh,1h,2h,3h,,,2xh/8xw4b[8:1],7h,6h,5h,,,{4}8bx,8bx-6[8:1]*-5[8:1],
8bxV24[8:1]*-3[8:1],8bx,{32}8bx,7x,6x,5x,{8}4x,,7,
{4}8xV24[8:1]*-3[8:1],8x>7b[4:1],{8}8bx,,,4bx>2b[8:1],
{32},,,,,,,,,,,,,,,,1bx,2x,3xh,4x,{8}5x,,2h,
{4}1V75[8:1]*-6[8:1],1x<2[4:1],{8}1x,,,5x<7[8:1],
{32},,,,,,,,,,,,,,,,8bx,7xh,6x,5xh,{8}4xh,,7h,
{4}8V24[8:1],8>7[4:1],{8}8h,,,4>2[8:1],
,,,,{2}1bxh[2:7]/5xh[2:7],
E
