&title=Qliphot
&artist=Xista
&first=0
&lv_5=14
&lv_6=14
&des=Gevurah
&inote_5=(180){4},,,,
{4}1b<2[8:4]/6h[8:4],,,8-4[8:1],
2/8b,{16}1-5[8:1],,5,,1,,7,,8>3[8:1]*v6[8:1],,,,
8,,,,4<7[8:1],,3,,2h[8:1],,,,84
,,,,6-1[8:1],,4,,6,,3,,2-6[8:1],,,,
{16}2,,,,3,5,3,5,4,6,4,6,
{16}5,7,5,7,5>2[8:1],,,,
{4}5b/8,
{16}7-4[8:1],,1,,7,,2,,1<6[8:1]*v3[8:1],,,,
1,,,,5>2[8:1],,6,,7h[8:1],,,,15
,,,,3-8[8:1],,5,,3,,6,,7>2[8:1]*v5[8:1],,,,
{16}7,,,,
6-1[8:1],,6,,5-2[8:1],,5,,
{16}7-4[8:1],,7,,8>3[8:1],,,,
{16}8b/6,,,,8-4[8:1],,1,,8,,2>5[8:1],,,,2,,{8}6-1[8:1],6,2,,3-8[8:1],
{8}4,3,7<4[8:1],,7,{8}1-5[8:1],1,6<1[8:1],6,3,,
{16}2,1,3,8,4,7,5,6,4,3,2,1,8/4<7[8:1],,,,
{16}2b/4,,,,1-5[8:1],,8,,1,,7<4[8:1],,,,7,,{8}3-8[8:1],3,7,,6-1[8:1],
{8}5,6,2>5[8:1],,2,{8}8-4[8:1],8,3>8[8:1],3,6,,
{16}7,8,6,1,5,2,4,3,5,6,7,8,
{16}2,3,4,5,
(179){384}6p4[4:6]/2bp8[4:6],,{4},,,,,,,,
(170)
{16}2,3,4,5,7,8,1,2,5,4,3,2,7,6,5,4,
1-5[16:2],,,5-3[16:1],,,7,,{16}8,2,1,2,{8}8-4[8:1],4-8[8:1],
(174)
{8}8b,2h[8:3],,,8,,,{128},{8}6,{4}6h[8:5],{8},,,1,2,3,
(185)
{4}4h[8:3],{16},,7,4,{4}7h[8:3],{16},,3,6,
{4}3h[8:2],5h[4:1],{128}6h[128:68],,,,,,,,,,,,,,,,,,,,,,,,,,,,,,,,,,,,{4},
(180)7<4[8:4],,3,,
2>5[8:4],{8},6,7,,8,,
1p5[8:4],,,,3V17[8:4],,,,
4V68[8:4],,,,2h[8:2],,,,
{8}
4bz8[8:10]/8h[4:1],,,,7h[4:1],,,,
6h[4:1],,,,5h[4:1],,{8}2,3,
{4}8z4[8:10]*z4[8:10]/4h[4:1],{16},,,,{4}3h[4:1],
{16},,,,{4}2h[4:1],,1h[4:1],,
4<8[8:6],,{8}2h[4:1],,{4},
3V57[8:6],{8},2,{4}1h[4:1],,
2q5[8:6],,8h[4:1],,
{16}6h[16:3],,,4h[16:3],,,7,,{16}73,6,5,4,3,2,1,8,
(177){4}7b/3h[8:1],6/3h[8:1],{16}3h[8:1]/5,,,4,3h[8:1],,
{8}4,3h[8:1],2,{8}3h[8:1],1,{8}3h[8:1],8,3-5[12:1],7,
(176){8}3/6h[8:1],,{4}6h[8:1]/3,{16}6h[8:1]/4,,,5,{8}6h[8:1],5,6h[8:1],7,{8}6h[8:1],8,{8}6h[8:1],1b,6-1[8:1],2,6/3h[8:1],,{4}3h[8:1],{16}3h[8:1]/1q6[8:4],,,,{8}3h[8:1],,3h[8:1],,{4}3h[8:1],{8}4h[8:1]/7p1[8:4],,4h[8:1],,4h[8:1],,{4}4h[8:1],{16}4h[8:1],,,,{8}5>8[16:5]/8q5[8:2],,85,,,,||
good
night
4<7[8:1],1,2,3,
(170){8}8,5-2[8:1],,5,7<4[16:2],{8},1-6[8:1],,,5>2[16:3],,
{8},1,8,7,6,{16}5/1-5[8:1],,,,14,5,6,7,8,1,2,3,4,5,6,7,8h[8:1],,2>5[8:1],,1,,2-8[8:1],,7-3[8:1],,2-5[8:1],,{8}7,2,{8}7b-4[8:1],,,1b>5[16:5],,{16}14,5,6,7,8,1,2b-5[8:1],,,,,,6b<2[32:10],,,,16,2,3,4,5,6,
(169){384}7qq8[8:11]/3qq4[8:11],,{16},,,,,,,,,,{4},,,{16},,{24},,,{8},{24},,,1,,,
(175){4}8/3^6[8:1],3/7-4[8:1],{8}2-5[8:1]/7,,2/6-1[8:1],,
(174){16}2b/6,3,4,5,8,7,6,5,{8}2-5[8:1],4-8[8:1],2,4,
(177){4}2bqq7[8:8]*>7[8:8],{8},,,,,,,,,,8,2,{16}46,,25,,
(183){16}8b-4[16:1],,,2b-6[16:1],,,5b-8[16:1],,,3b,,,{16}2h[8:1],,1,,{16}7,5,,2,4,,{16}35,3h[16:3]/5,,,2,1,8,7,6,5,
(181)
{8}8b-3[8:1]/4b-7[8:1],,{4}8<4[16:2],{8}8q3[16:6]/2,,
{8}8,5h[8:2],,{16},,6,,7,,8v6[8:1]/5>2[8:1],,{16},,
||{8}2qq5[8:3],7h[16:6],,{16},,,,,,8w4[8:1],,{16},,
||{8}8b-3[8:1]/4-7[8:1],,{4}8>6[8:2],{8}8/4,,
||{8}1,2V86[8:2],,{16},{16}6<3[8:2],5,,4,,4w8[8:1],,{16},,
{16},,,,
{16}53,,2,4,3,,7,5,6,,2,4,3,,7/5h[8:1],,
{8}8-4[8:1],3-1[12:1],8,3,{16}5-1[16:2],,2,3,4,,,,
{4}2bV46[8:2]/8b,{8}6>2[16:3],7,8-5[8:1],,
{8}8,1qq3[8:3],,41,5,6,7p5[16:5],48,
{4},{16}1b,,2,4,3,,7,5,
{16}6,,2,1,3,,7-4[8:1]/4,,{8},7,1-5[8:1],5-1[8:1],{16}1b,,,8b,,,{8}6b,
(175){384}3bqq4[4:6]/7bqq8[4:6],,
{8},,,,,,,,,,,,,,,{16},{128},,,,,,,,
(170)
{16}8b-3[8:1]/2b,,,4,8<5[8:1],,2,,8-4[8:1],,{24}2,3,4,{16}8,,2,,
1h[8:1],,5,6,7/3h[8:1],,6,5,4/1h[8:1],,5,6,{16}7/3h[8:1],,6,5,
{16}4/1b-6[8:1],,,5,1>4[8:1],,7,,1-5[8:1],,{24}7,6,5,{16}1,,7,,
8h[8:1],,4,3,2/6h[8:1],,3,4,5/8h[8:1],,4,3,{16}2/6h[8:1],,3,4,
{16}5/8b-4[8:1],,4,3,2-5[8:1]/8,,1,,
2/6-1[8:1],,{16}7,,{16}36,,
2,,3b-8[8:1],,7,7,3
,,5,5,
1bV35[16:2],,7,7,1,,,,
{16}1b/3,8,7,6,3,2,1,8,
4,5,6,7,2,3,4,5,
8bqq5[8:5],,4b,,3b,,2b,,3b,,2b,,3b,,2b,,
{16}1b-6[8:1],,,5,1>4[8:1],,7,,1-5[8:1],,{24}7,6,5,{16}1,,7,,
8h[8:1],,4,3,2/6h[8:1],,3,4,5/8h[8:1],,4,3,{16}2/6h[8:1],,3,4,
{16}5/8b-3[8:1],,,4,8<5[8:1],,2,,8-4[8:1],,{24}2,3,4,{16}8,,2,,
1h[8:1],,5,6,7/3h[8:1],,6,5,4/1h[8:1],,5,6,{16}7/3h[8:1],,6,5,
{16}4/1h[8:1],,7,8,6h[8:1],,2,1,
3h[8:1],,{24}8,7,6,{16}5/2,,1,,
34,,6,5,7
,,3,4,
1,,6,4,8,,53,,
(176){16}1h[8:1]/2h[8:1],,,6h[8:1]/4h[8:1],,,{8}78,{16}6h[8:1]/4h[8:1],,,2h[8:1]/5h[8:1],,,{8}17,
(180){16}2,4,,{16}7,5,,46,4/6h[16:3],,,{16}7,8,1,2,3,4,
(180){8}1b-6[8:1]/5b-2[8:1],,{4}1>5[16:2],{8}1p6[16:6]/7,,
{8}1,4h[8:2],,{16},,3,,4,,6/1h[4:1],,{16},,{32}7b,6,5,4,3,2,1,8,
(182)
{4}3b-8[12:1]/7b<4[8:1],3-7[8:1]/7,1-6[8:1]*-4[8:1]/3,{8}1,,
{8}8-4[8:1],3-1[12:1],8,3,5<8[8:1],{16}2,3,4,,{8},
{4}1-5[8:1],{8}1>6[8:2]/7,8,13,,
{8}8,1>6[8:2],,8,8V24[8:2],,4V61[8:2],,
{4},
(181){16}4h[8:1],,7,5,6h[8:1],,1,4,3h[8:1],,8,4,6h[16:2],,2-5[8:1],,
,,2/6,,8-3[8:1],,3^8[8:1],,8^5[8:1],,,,4,,,,
{8}8bw4[8:1],,{4}8>6[16:4],{8}8/2,,
{8}1bp8[8:3],7b<2[16:4],,{16},,,,,,7w3[8:1],,{16},,
{4}7b,
{16}6/1,,2,3,48,,2,,71,,6,5,43,,2-5[8:1],,,,12,,7-4[8:1],,4V61[16:3],,7,,1,2,3,,,,
3bV17[8:2]/8,,,,7>3[8:2],,6,,5-1[8:1],,,,5,,4>7[8:3],,,,4,,7>4[8:3],,6,,5-8[8:1],,,,,,,,
(182){16}1b/3b-8[8:1],,3,4,3,,7,,6b-1[8:1],,7,5,6,,2>5[8:1],,
{16},,2,,8-4[8:1]
,,4-8[8:1],,
8b,,,1b,
,,3b,,
(180){4}6b/2b,{16}2,1,2,1,(180){16}2,3,4,5,8,7,6,5,
(185){16}2h[8:1],,4,3,
7h[8:1],,5,6,
1h[8:1],,4,3,
6,,4,,
(180){16}8,7,6,5,
4/2,,6,5,
7,,3,4,{16}2,,8,8,
(180)
2,1,3,8,4,7,5,6,
{16}3,4,2,5,1-5[8:1],6,8,7,
{4}1b,
{16}7,8,7,1,
7,6,5,4,1,2,3,4,
7h[8:1],,5,6,
2h[8:1],,4,3,
8h[8:1],,5,6,
3,,4,,
1,2,3,4,
5/7,,2,1,
3,,7,8,
{16}6,,2,2,
4,5,6,7,2,3,4,5,
{16}1-5[8:1],8,7,6,5b/1b,,,,
(180){16}7b/4b,,,5,6<8[12:1],,8-4[16:2],,6,,3-1[12:1],,,,3,,
{16}6,,,8,7<5[12:1],,5-1[16:2],,7,,2-4[12:1],,,,2,,
{16}7h[16:3],,,5,8>6[4:1],,3,,8-4[8:1],,,,8,,,,(180)1,8,7,6,
(180)3,2,1,8,3,4,5,6,1,2,3,4,
(182){16}8b/5b,,,7,4>1[8:1],,1-5[16:2],,4,,6-8[12:1],,,,6,,
{16}3,,,1,2>5[8:1],,5-1[16:2],,2,,8-6[12:1],,,,8,,
{16}2h[16:3],,,4,1<6[8:1],,6>3[8:1],,1-5[8:1],,,,1,,,,(180)8,1,2,3,7,8,1,2,
(180)6,7,8,1,26,37,48,51,
(180)2-7[8:1]*-7[8:1]`6-3[8:1],,,{384},,,,,,,,,,,,,,,,,,,,,,2bqq5[8:10],6bqq1[8:10]*qq1[8:10],{16},,,,
{4},,,,,{32},,,,,,,,{384}5b-1[8:1]*-1[8:1],1b-5[8:1],{4},,,,
E
&inote_6=(180){4},,,,
{4}1b<2[8:4]/6h[8:4],,,8-4[8:1],
2/8b,{16}3,5,3,5,2,,18,,7,8,7,,
6h[8:1],,4,5,2h[8:1],,5,3,7h[8:1],,4,6,
2,,46,,7,4,6,4,5h[8:1],,3,4,2h[8:1],,8,1,
{16}7,,46,,3,5,3,5,4,6,4,6,
{16}5,7,5,7,5>2[8:1],,,,
{4}5b/8,
{16}6,4,6,4,7,,18,,2,1,2,,
3h[8:1],,5,4,
7h[8:1],,4,6,
2h[8:1],,5,3,
6,,35,,2,5,3,5,
4h[8:1],,6,5,
7h[8:1],,1,8,
{16}2,,53,,
6,4,6,4,5,3,5,3,
{16}4,2,4,2,4<7[8:1],,,,
{16}4b/1,,,,1-5[8:1],,8,,1,,7<4[8:1],,,,7,,{8}3-8[8:1],3,7,,6-1[8:1],
{8}5,6,2>5[8:1],,2,{8}8-4[8:1],8,3>8[8:1],3,6,,
{16}7,8,6,1,5,2,4,3,5,6,7,8,
1/5>2[8:1],,,,
{16}7b/5,,,,8-4[8:1],,1,,8,,2>5[8:1],,,,2,,{8}6-1[8:1],6,2,,3-8[8:1],
{8}4,3,7<4[8:1],,7,{8}1-5[8:1],1,6<1[8:1],6,3,,
{16}2,1,3,8,4,7,5,6,4,3,2,1,
{16}7,6,5,4,
(179){384}3q5[4:6]*q5[4:6],7bq1[4:6],{4},,,,,,,,
(170)
{16}2,3,4,5,7,8,1,2,5,4,3,2,7,6,5,4,
1-5[16:2],,,5-3[16:1],,,7,,{16}8,2,1,2,{8}8-4[8:1],4-8[8:1],
(174)
{8}8b,2h[8:3],,,8,,,{128},{8}6,{4}6h[8:5],{8},,,1,2,3,
(185)
{4}4h[8:3],{16},,1,8,{4}7h[8:3],{16},,2,3,
{4}4h[8:2],5h[4:1],{128}6h[128:68],,,,,,,,,,,,,,,,,,,,,,,,,,,,,,,,,,,,{4},
(180)7<4[8:4],,3,,
2v5[8:4],{8},6,7,,8,,
1p5[8:4],,,,3V17[8:4],,,,
4V68[8:4],,,,2h[8:2],,,,
{8}
4bz8[8:10]/8h[4:1],,,,7h[4:1],,,,
6h[4:1],,,,5h[4:1],,{8}2,3,
{4}8z4[8:10]/4h[4:1],{16},,,,{4}3h[4:1],
{16},,,,{4}2h[4:1],,1h[4:1],,
4<8[8:6],,{8}2h[4:1],,{4},
3V57[8:6],,1h[4:1],,
2q5[8:6],,8h[4:1],,
{16}6h[16:3],,,4h[16:3],,,7,,{16}73,6,5,4,3,2,1,8,
(177){4}7b/3h[8:1],6/3h[8:1],{16}3h[8:1]/5,,,4,3h[8:1],,
{8}4,3h[8:1],2,{8}3h[8:1],1,{8}3h[8:1],8,3-5[12:1],7,
(176){8}3/6h[8:1],,{4}6h[8:1]/3,{16}6h[8:1]/4,,,5,{8}6h[8:1],5,6h[8:1],8,{8}6h[8:1],1,{8}6h[8:1],2b,6-1[8:1],3,6/4h[8:1],,{4}4h[8:1],{16}4h[8:1]/2q6[8:4],,,,{8}4h[8:1],,4h[8:1],,{4}4h[8:1],{8}4h[8:1]/7p1[8:4],,4h[8:1],,4h[8:1],,{4}4h[8:1],{16}4h[8:1],,,,{8}5>8[16:5]/8q5[8:2],,85,,,,
4<7[8:1],1,2,3,
(170){8}8,5-2[8:1],,5,7<4[16:2],{8},1-6[8:1],,,5>2[16:3],,
{8},1,8,7,6,{16}5/1-5[8:1],,,,14,5,6,7,8,1,2,3,4,5,6,7,8h[8:1],,2>5[8:1],,1,,2-8[8:1],,7-3[8:1],,2-5[8:1],,{8}7,2,{8}7b-4[8:1],,,1b>5[16:4],,{16}14,5,6,7,8,1,2b-5[8:1],,,,,,8b<4[16:4],,,,58,4,3,2,1,8,
(169){384}7bpp6[8:11],3bpp2[8:11]*pp2[8:11],{16},,,,,,,,,,{4},,,{16},,{24},,,{8},{24},,,1,,,
(175){4}8/3^6[8:1],3/7-4[8:1],{8}2-5[8:1]/7,,2/6-1[8:1],,
(174){16}2b/6,3,4,5,8,7,6,5,{8}2-5[8:1],4-8[8:1],2,4,
(177){4}2bqq7[8:8]*>7[8:8],{8},,,,,,,,,,8,2,{16}46,,25,,
(183){16}8b-4[16:1],,,2b-6[16:1],,,5b-8[16:1],,,3b,,,{16}2h[8:1],,1,,{16}7,5,,2,4,,{16}53,3h[16:5]/5,,,2,1,8,7,6,5,
(181)
||
{8}8b-3[8:1]/4b-7[8:1],,{4}8<4[16:2],{8}8q3[16:6]/2,,
{8}8,5h[8:2],,{16},,6,,7,,8v6[8:1]/4v2[8:1],,{16},,
||{8}2qq5[8:3],7h[16:6],,{16},,,,,,8w4[8:1],,{16},,
||
||{8}8b-3[8:1]/4-7[8:1],,{4}8>6[8:2],{8}8/4,,
||{8}1,2V86[8:2],,{16},{16}6<3[8:2],5,,4,,4w8[8:1],,{16},,
||
{16},,,,
{16}53,,2,4,3,,7,5,6,,2,4,3,,7/5h[8:1],,
{8}8-4[8:1],3-1[12:1],8,3,{16}5-1[16:2],,2,3,4,,,,
{4}2bV46[8:2]/8b,{8}6>2[16:3],7,8-4[8:1],,
{8}8,1V36[8:2],,6,7,8,1V74[8:2],3,
{4},{16}1b,,2,4,3,,7,5,
{16}6,,2,1,3,,7-4[8:1]/4,,{8},7,1-5[8:1],5-1[8:1],{16}1b,,,8b,,,{8}6b,
(175){384}3bqq4[4:6]*qq4[4:6],7bqq8[4:6],
{8},,,,,,,,,,,,,,,{16},{128},,,,,,,,
(170)
{16}8b-3[8:1]/2b,,,4,8<5[8:1],,2,,8-4[8:1],,{24}2,3,4,{16}8,,2,,
1h[8:1],,5,6,7/3h[8:1],,6,5,4/1h[8:1],,5,6,{16}7/3h[8:1],,6,5,
{16}4/1b-6[8:1],,,5,1>4[8:1],,7,,1-5[8:1],,{24}7,6,5,{16}1,,7,,
8h[8:1],,4,3,2/6h[8:1],,3,4,5/8h[8:1],,4,3,{16}2/6h[8:1],,3,4,
{16}5/8b-4[8:1],,4,3,2-5[8:1]/8,,1,,
2/6-1[8:1],,{16}7,,{16}36,,
2,,3b-8[8:1],,7,7,3
,,5,5,
1bV35[16:2],,7,7,1,,,,
{16}1b/3,8,7,6,3,2,1,8,
4,5,6,7,2,3,4,5,
8bqq5[8:5],,4b,,3b,,2b,,3b,,2b,,3b,,2b,,
{16}1b-6[8:1],,,5,1>4[8:1],,7,,1-5[8:1],,{24}7,6,5,{16}1,,7,,
8h[8:1],,4,3,2/6h[8:1],,3,4,5/8h[8:1],,4,3,{16}2/6h[8:1],,3,4,
{16}5/8b-3[8:1],,,4,8<5[8:1],,2,,8-4[8:1],,{24}2,3,4,{16}8,,2,,
1h[8:1],,5,6,7/3h[8:1],,6,5,4/1h[8:1],,5,6,{16}7/3h[8:1],,6,5,
{16}4/1h[8:1],,7,8,6h[8:1],,2,1,
3h[8:1],,{24}8,7,6,{16}5/2,,1,,
34,,6,5,7
,,3,4,
2,,7,8,6,,53,,
(176){16}1h[8:1]/2h[8:1],,,6h[8:1]/4h[8:1],,,{8}78,{16}2h[8:1]/5h[8:1],,,6h[8:1]/4h[8:1],,,{8}17,
(180){16}2,4,,{16}7,5,,46,4/6h[16:5],,,{16}7,8,1,2,3,4,
(180){8}1b-6[8:1]/5b-2[8:1],,{4}1>5[16:2],{8}1p6[16:6]/7,,
{8}1,4h[8:2],,{16},,3,,2,,6/1h[4:1],,{16},,{32}7,6,5,4,3,2,1,8,
(182)
{4}3b-8[12:1]/7b<4[8:1],3-7[8:1]/7,1-5[8:1]/3,{8}16,,
{8}8-4[8:1],3-1[12:1],8,3,5<8[8:1],{16}2,3,4,,{8},
{4}3bV17[8:2],{8}7>3[16:3],6,5-1[8:1],,
{8}5,4V27[8:2],,7,6,5,4V61[8:2],2,
{4},
(181){16}4h[8:1],,7,5,6h[8:1],,2,4,3h[8:1],,8,2,6h[16:2],,3,,
4-8[8:1],,7-5[8:1],,4,,7,,2b-6[8:1],,,,25,,,,
{8}8bw4[8:1],,{4}8>6[16:4],{8}8/2,,
{8}1bp8[8:3],7b<2[16:4],,{16},,,,,,1w5[8:1],,{16},,
{4}1b,
{16}3b/7b,,6,5,6,,53,,82,,7,1,7,,46,,3V51[8:2],,7,,3,,6,,8<5[8:1],,2,3,4,,,,
2bV86[8:2]/4,,,,6<2[8:2],,5,,4-8[8:1],,,,4,,3pp2[8:3],,,,1,,8,,7,,6pp5[16:5],,1,,,,,,
(182){16}3b-8[8:1],,2,4,3,,7,,6b-1[8:1],,7,5,6,,2>5[8:1],,
{16},,2,,8-4[8:1]
,,4-8[8:1],,
8b,,,1b,
,,3b,,
(180){4}6b/2b,{16}2,1,2,1,(180){16}2,3,4,5,8,7,6,5,
(185){16}2h[8:1],,4,3,
7h[8:1],,5,6,
1h[8:1],,4,3,
6,,57,,
(180){16}8,7,6,5,
4/2,,6,5,
7,,3,4,{16}2,,8,8,
(180)
2,1,3,8,4,7,5,6,
{16}3,4,2,5,1-5[8:1],6,8,7,
{4}1b,
{16}7,8,7,1,
7,6,5,4,1,2,3,4,
7h[8:1],,5,6,
2h[8:1],,4,3,
8h[8:1],,5,6,
3,,42,,
1,2,3,4,
5/7,,2,1,
3,,7,8,
{16}6,,2,2,
4,5,6,7,2,3,4,5,
{16}1-5[8:1],8,7,6,5b/1b,,,,
(180){16}7b/4b,,,5,6<8[8:1],,8-4[16:3],,6,,3-1[12:1],,,,3,,
{16}6b,,,8,7<5[8:1],,5-1[16:3],,7,,2-4[12:1],,,,2,,
{16}7h[16:3],,,5,8>3[8:1],,3<6[8:1],,8-4[8:1],,,,8,,,,(180)1,8,7,6,
(180)3,2,1,8,3,4,5,6,1,2,3,4,
(182){16}8b/5b,,,6,4>1[8:1],,1-5[16:3],,4,,6-8[12:1],,,,6,,
{16}3b,,,1,2>5[8:1],,5-1[16:3],,2,,8-6[12:1],,,,8,,
{16}2h[16:3],,,4,1<6[8:1],,6>3[8:1],,1-5[8:1],,,,1,,,,(180)8,1,2,3,6,7,8,1,
(180)6,5,4,3,8,7,6,5,
(180)4v7[8:1]/8v3[8:1],,,{384},,,,,,,,,,,,,,,,,,,,,,4bpp1[8:10],8bpp5[8:10]*pp5[8:10],{16},,,,
{4},,,,,{32},,,,,,,,{384}3b-7[8:1]*-7[8:1],7b-3[8:1],{4},,,,
E
&inote_7=(180){4},,,,
{4}1b<2[8:4]/6h[8:4],,,8-4[8:1],
2/8b,{16}3,5,3,5,2,,18,,7,8,7,,
6h[8:1],,4,5,2h[8:1],,5,3,7h[8:1],,4,6,
2,,46,,7,4,6,4,5h[8:1],,3,4,2h[8:1],,8,1,
{16}7,,46,,3,5,3,5,4,6,4,6,
{16}5,7,5,7,5>2[8:1],,,,
{4}5b/7,
{16}6,4,6,4,7,,18,,2,1,2,,
3h[8:1],,5,4,
7h[8:1],,4,6,
2h[8:1],,5,3,
6,,35,,2,5,3,5,
4h[8:1],,6,5,
7h[8:1],,1,8,
{16}2,,53,,
6,4,6,4,5,3,5,3,
{16}4,2,4,2,4<7[8:1],,,,
{16}4/2b,,,,1-5[8:1],,8,,1,,7<4[8:1],,,,7,,{8}3-8[8:1],3,7,,6-1[8:1],
{8}5,6,2>5[8:1],,2,{8}8-4[8:1],8,3>8[8:1],3,6,,
{16}7,8,6,1,5,2,4,3,5,6,7,8,
1/5>2[8:1],,,,
{16}7b/5,,,,8-4[8:1],,1,,8,,2>5[8:1],,,,2,,{8}6-1[8:1],6,2,,3-8[8:1],
{8}4,3,7<4[8:1],,7,{8}1-5[8:1],1,6<1[8:1],6,3,,
{16}2,1,3,8,4,7,5,6,4,3,2,1,
{16}7,6,5,4,
(179){384}3bq5[4:6]*q5[4:6],7bq1[4:6],{4},,,,,,,,
(170)
{16}2,3,4,5,7,8,1,2,5,4,3,2,7,6,5,4,
1-5[16:2],,,5-3[16:1],,,7,,{16}8,2,1,2,{8}8-4[8:1],4-8[8:1],
(174)
{8}8b,2h[8:3],,,8,,,{128},{8}6,{4}6h[8:5],{8},,,1,2,3,
(185)
{4}4h[8:3],{16},,1,8,{4}7h[8:3],{16},,2,3,
{4}4h[8:2],5h[4:1],{128}6h[128:68],,,,,,,,,,,,,,,,,,,,,,,,,,,,,,,,,,,,{4},
(180)7<4[8:4],,3,,
2v5[8:4],{8},6,7,,8,,
1p5[8:4],,,,3V17[8:4],,,,
4V68[8:4],,,,2h[8:2],,,,
{8}
4bz8[8:10]/8h[4:1],,,,7h[4:1],,,,
6h[4:1],,,,5h[4:1],,{8}2,3,
{4}8z4[8:10]/4h[4:1],{16},,,,{4}3h[4:1],
{16},,,,{4}2h[4:1],,1h[4:1],,
4<8[8:6],,{8}2h[4:1],,{4},
3V57[8:6],,1h[4:1],,
2q5[8:6],,8h[4:1],,
{16}6h[16:3],,,4h[16:3],,,7,,{16}73,6,5,4,3,2,1,8,
(177){4}7b/3h[8:1],6/3h[8:1],{16}3h[8:1]/5,,,4,3h[8:1],,
{8}4,3h[8:1],2,{8}3h[8:1],1,{8}3h[8:1],8,3-5[12:1],7,
(176){8}3/6h[8:1],,{4}6h[8:1]/3,{16}6h[8:1]/4,,,5,{8}6h[8:1],5,6h[8:1],8,{8}6h[8:1],1,{8}6h[8:1],2b,6-1[8:1],3,6/4h[8:1],,{4}4h[8:1],{16}4h[8:1]/2q6[8:4],,,,{8}4h[8:1],,4h[8:1],,{4}4h[8:1],{8}4h[8:1]/7p1[8:4],,4h[8:1],,4h[8:1],,{4}4h[8:1],{16}4h[8:1],,,,{8}5>8[16:5]/8q5[8:2],,85,,,,
4<7[8:1],1,2,3,
(170){8}8,5-2[8:1],,5,7<4[16:2],{8},1-6[8:1],,,5>2[16:3],,
{8},1,8,7,6,{16}5/1-5[8:1],,,,14,5,6,7,8,1,2,3,4,5,6,7,8h[8:1],,2>5[8:1],,1,,2-8[8:1],,7-3[8:1],,2-5[8:1],,{8}7,2,{8}7b-4[8:1],,,1b>5[16:4],,{16}14,5,6,7,8,1,2b-5[8:1],,,,,,8b<4[16:4],,,,58,4,3,2,1,8,
(169){384}7bpp6[8:11],3bpp2[8:11]*pp2[8:11],{16},,,,,,,,,,{4},,,{16},,{24},,,{8},{24},,,1,,,
(175){4}8/3^6[8:1],3/7-4[8:1],{8}2-5[8:1]/7,,2/6-1[8:1],,
(174){16}2b/6,3,4,5,8,7,6,5,{8}2-5[8:1],4-8[8:1],2,4,
(177){4}2bqq7[8:8]*>7[8:8],{8},,,,,,,,,,8,2,{16}46,,25,,
(183){16}8b-4[16:1],,,2b-6[16:1],,,5b-8[16:1],,,3b,,,{16}2h[8:1],,1,,{16}7,5,,2,4,,{16}46,46,,,3,2,1,7,6,5,
(181)
||
{8}8b-3[8:1]/4b-7[8:1],,{4}8<4[16:2],{8}8q3[16:6]/2,,
{8}8,5h[8:2],,{16},,6,,7,,8v6[8:1]/4v2[8:1],,{16},,
||{8}2qq5[8:3],7h[16:6],,{16},,,,,,8w4[8:1],,{16},,
||
||{8}8b-3[8:1]/4-7[8:1],,{4}8>6[8:2],{8}8/4,,
||{8}1,2V86[8:2],,{16},{16}6<3[8:2],5,,4,,4w8[8:1],,{16},,
||
{16},,,,
{16}53,,2,4,3,,7,5,6,,2,4,3,,7/5h[8:1],,
{8}8-4[8:1],3-1[12:1],8,3,{16}5-1[16:2],,2,3,4,,,,
{4}2bV46[8:2]/8b,{8}6>2[16:3],7,8-4[8:1],,
{8}8,1V36[8:2],,6,7,8,1V74[8:2],3,
{4},{16}1b,,2,4,3,,7,5,
{16}6,,2,1,3,,7-4[8:1]/4,,{8},7,1-5[8:1],5-1[8:1],{16}1b,,,8b,,,{8}6b,
(175){384}3bqq4[4:6]*qq4[4:6],7bqq8[4:6],
{8},,,,,,,,,,,,,,,{16},{128},,,,,,,,
(170)
{16}8b-3[8:1]/2b,,,4,8<5[8:1],,2,,8-3[8:1],,{24}2,3,4,{16}8,,2,,
1h[8:1],,5,6,7/3h[8:1],,6,5,4/1h[8:1],,5,6,{16}7/3h[8:1],,6,5,
{16}4/1b-6[8:1],,,5,1>4[8:1],,7,,1-6[8:1],,{24}7,6,5,{16}1,,7,,
8h[8:1],,4,3,2/6h[8:1],,3,4,5/8h[8:1],,4,3,{16}2/6h[8:1],,3,4,
{16}5/8b-4[8:1],,4,3,2-5[8:1]/8,,1,,
2/6-1[8:1],,{16}7,,{16}36,,
2,,3b-8[8:1],,7,7,3
,,5,5,
1bV35[16:2],,7,7,1,,,,
{16}1b/3,8,7,6,3,2,1,8,
4,5,6,7,2,3,4,5,
8bqq5[8:5],,4b,,3b,,2b,,3b,,2b,,3b,,2b,,
{16}1b-6[8:1],,,5,1>4[8:1],,7,,1-6[8:1],,{24}7,6,5,{16}1,,7,,
8h[8:1],,4,3,2/6h[8:1],,3,4,5/8h[8:1],,4,3,{16}2/6h[8:1],,3,4,
{16}5/8b-3[8:1],,,4,8<5[8:1],,2,,8-3[8:1],,{24}2,3,4,{16}8,,2,,
1h[8:1],,5,6,7/3h[8:1],,6,5,4/1h[8:1],,5,6,{16}7/3h[8:1],,6,5,
{16}4/1h[8:1],,7,8,6h[8:1],,2,1,
3h[8:1],,{24}8,7,6,{16}5/2,,1,,
34,,6,5,7
,,3,4,
2,,7,8,6,,53,,
(176){16}1h[8:1]/2h[8:1],,,6h[8:1]/4h[8:1],,,{8}78,{16}2h[8:1]/5h[8:1],,,6h[8:1]/4h[8:1],,,{8}17,
(180){16}2,4,,{16}7,5,,35,35,,,{16}6,7,8,2,3,4,
(180){8}1b-6[8:1]/5b-2[8:1],,{4}1>5[16:2],{8}1p6[16:6]/7,,
{8}1,4h[8:2],,{16},,3,,2,,6/1h[4:1],,{16},,{32}7,6,5,4,3,2,1,8,
(182)
{4}3b-8[12:1]/7b<4[8:1],3-7[8:1]/7,1-5[8:1]/3,{8}16,,
{8}8-4[8:1],3-1[12:1],8,3,5<8[8:1],{16}2,3,4,,{8},
{4}3bV17[8:2],{8}7>3[16:3],6,5-1[8:1],,
{8}5,4V27[8:2],,7,6,5,4V61[8:2],2,
{4},
(181){16}4h[8:1],,7,5,6h[8:1],,2,4,3h[8:1],,8,2,6h[16:2],,3,,
4-8[8:1],,7-5[8:1],,4,,7,,2b-6[8:1],,,,25,,,,
{8}8bw4[8:1],,{4}8>6[16:4],{8}8/2,,
{8}1bp8[8:3],7b<2[16:4],,{16},,,,,,1w5[8:1],,{16},,
{4}1b,
{16}3b/7b,,6,5,6,,53,,82,,7,1,7,,46,,3V51[8:2],,7,,3,,6,,8<5[8:1],,2,3,4,,,,
2bV86[8:2]/8,,,,6<2[8:2],,5,,4-8[8:1],,,,4,,3pp2[8:3],,,,1,,8,,7,,6pp5[16:5],,1,,,,,,
(182){16}3b-8[8:1],,2,4,3,,7,,6b-1[8:1],,7,5,6,,2>5[8:1],,
{16},,2,,8-4[8:1]
,,4-8[8:1],,
8b,,,1b,
,,3b,,
(180){4}6b/2b,{16}2,1,2,1,(180){16}2,3,4,5,8,7,6,5,
(185){16}2h[8:1],,4,3,
7h[8:1],,5,6,
1h[8:1],,4,3,
6,,57,,
(180){16}8,7,6,5,
4/2,,6,5,
7,,3,4,{16}2,,8,8,
(180)
2,1,3,8,4,7,5,6,
{16}3,4,2,5,1-5[8:1],6,8,7,
{4}1b,
{16}7,8,7,1,
7,6,5,4,1,2,3,4,
7h[8:1],,5,6,
2h[8:1],,4,3,
8h[8:1],,5,6,
3,,42,,
1,2,3,4,
5/7,,2,1,
3,,7,8,
{16}6,,2,2,
4,5,6,7,2,3,4,5,
{16}1-5[8:1],8,7,6,5b/1b,,,,
(180){16}6bpp1[16:10],,,3,,,4,,2-4[8:1],,,,2,,,,
{16}5bqq1[8:5],,,7,,,6,,8-6[8:1],,,,8,,,,
{16}5bqq7[16:10],,,1,,,2,,8>2[8:1],,,,8,,,,(180)3,4,5,6,1,2,3,4,
(180)7,8,1,2,5,6,7,8,
(182){16}3/1bqq5[8:5],,,2,,,3,,4-2[8:1],,,,4,,,,
{16}6/1bpp5[8:5],,,8,,,7,,6-8[8:1],,,,6,,,,
{16}4/1bqq6[16:10],,,3,,,4,,5>3[8:1]*>3[8:1],,,,5,,,,(180)2,1,8,7,4,3,2,1,
(180)6,5,4,3,8,7,6,5,
(180)4v7[8:1]/8v3[8:1],,,{384},,,,,,,,,,,,,,,,,,,,,,4bpp1[8:10],8bpp5[8:10]*pp5[8:10],{16},,,,
{4},,,,,{32},,,,,,,{384}2bv5[8:1]*v5[8:1],8v5[8:1],{4},,,,
E
&inote_6=(180){4},,,,
{4}1b<2[8:4]/6h[8:4],,,8-4[8:1],
2/8b,{16}3,5,3,5,2,,18,,7,8,7,,
6h[8:1],,4,5,2h[8:1],,5,3,7h[8:1],,4,6,
2,,46,,7,4,6,4,5h[8:1],,3,4,2h[8:1],,8,1,
{16}7,,46,,3,5,3,5,4,6,4,6,
{16}5,7,5,7,5>2[8:1],,,,
{4}5b/7,
{16}6,4,6,4,7,,18,,2,1,2,,
3h[8:1],,5,4,
7h[8:1],,4,6,
2h[8:1],,5,3,
6,,35,,2,5,3,5,
4h[8:1],,6,5,
7h[8:1],,1,8,
{16}2,,53,,
6,4,6,4,5,3,5,3,
{16}4,2,4,2,4<7[8:1],,,,
{16}4/2b,,,,1-5[8:1],,8,,1,,7<4[8:1],,,,7,,{8}3-8[8:1],3,7,,6-1[8:1],
{8}5,6,2>5[8:1],,2,{8}8-4[8:1],8,3>8[8:1],3,6,,
{16}7,8,6,1,5,2,4,3,5,6,7,8,
1/5>2[8:1],,,,
{16}7b/5,,,,8-4[8:1],,1,,8,,2>5[8:1],,,,2,,{8}6-1[8:1],6,2,,3-8[8:1],
{8}4,3,7<4[8:1],,7,{8}1-5[8:1],1,6<1[8:1],6,3,,
{16}2,1,3,8,4,7,5,6,4,3,2,1,
{16}7,6,5,4,
(179){384}3bq5[4:6]*q5[4:6],7bq1[4:6],{4},,,,,,,,
(170)
{16}2,3,4,5,7,8,1,2,5,4,3,2,7,6,5,4,
1-5[16:2],,,5-3[16:1],,,7,,{16}8,2,1,2,{8}8-4[8:1],4-8[8:1],
(174)
{8}8b,2h[8:3],,,8,,,{128},{8}6,{4}6h[8:5],{8},,,1,2,3,
(185)
{4}4h[8:3],{16},,1,8,{4}7h[8:3],{16},,2,3,
{4}4h[8:2],5h[4:1],{128}6h[128:68],,,,,,,,,,,,,,,,,,,,,,,,,,,,,,,,,,,,{4},
(180)7<4[8:4],,3,,
2v5[8:4],{8},6,7,,8,,
1p5[8:4],,,,3V17[8:4],,,,
4V68[8:4],,,,2h[8:2],,,,
{8}
4bz8[8:10]/8h[4:1],,,,7h[4:1],,,,
6h[4:1],,,,5h[4:1],,{8}2,3,
{4}8z4[8:10]/4h[4:1],{16},,,,{4}3h[4:1],
{16},,,,{4}2h[4:1],,1h[4:1],,
4<8[8:6],,{8}2h[4:1],,{4},
3V57[8:6],,1h[4:1],,
2q5[8:6],,8h[4:1],,
{16}6h[16:3],,,4h[16:3],,,7,,{16}73,6,5,4,3,2,1,8,
(177){4}7b/3h[8:1],6/3h[8:1],{16}3h[8:1]/5,,,4,3h[8:1],,
{8}4,3h[8:1],2,{8}3h[8:1],1,{8}3h[8:1],8,3-5[12:1],7,
(176){8}3/6h[8:1],,{4}6h[8:1]/3,{16}6h[8:1]/4,,,5,{8}6h[8:1],5,6h[8:1],8,{8}6h[8:1],1,{8}6h[8:1],2b,6-1[8:1],3,6/4h[8:1],,{4}4h[8:1],{16}4h[8:1]/2q6[8:4],,,,{8}4h[8:1],,4h[8:1],,{4}4h[8:1],{8}4h[8:1]/7p1[8:4],,4h[8:1],,4h[8:1],,{4}4h[8:1],{16}4h[8:1],,,,{8}5>8[16:5]/8q5[8:2],,85,,,,
4<7[8:1],1,2,3,
(170){8}8,5-2[8:1],,5,7<4[16:2],{8},1-6[8:1],,,5>2[16:3],,
{8},1,8,7,6,{16}5/1-5[8:1],,,,14,5,6,7,8,1,2,3,4,5,6,7,8h[8:1],,2>5[8:1],,1,,2-8[8:1],,7-3[8:1],,2-5[8:1],,{8}7,2,{8}7b-4[8:1],,,1b>5[16:4],,{16}14,5,6,7,8,1,2b-5[8:1],,,,,,8b<4[16:4],,,,58,4,3,2,1,8,
(169){384}7bpp6[8:11],3bpp2[8:11]*pp2[8:11],{16},,,,,,,,,,{4},,,{16},,{24},,,{8},{24},,,1,,,
(175){4}8/3^6[8:1],3/7-4[8:1],{8}2-5[8:1]/7,,2/6-1[8:1],,
(174){16}2b/6,3,4,5,8,7,6,5,{8}2-5[8:1],4-8[8:1],2,4,
(177){4}2bqq7[8:8]*>7[8:8],{8},,,,,,,,,,8,2,{16}46,,25,,
(183){16}8b-4[16:1],,,2b-6[16:1],,,5b-8[16:1],,,3b,,,{16}2h[8:1],,1,,{16}7,5,,2,4,,{16}46,46,,,3,2,1,7,6,5,
(181)
||
{8}8b-3[8:1]/4b-7[8:1],,{4}8<4[16:2],{8}8q3[16:6]/2,,
{8}8,5h[8:2],,{16},,6,,7,,8v6[8:1]/4v2[8:1],,{16},,
||{8}2qq5[8:3],7h[16:6],,{16},,,,,,8w4[8:1],,{16},,
||
||{8}8b-3[8:1]/4-7[8:1],,{4}8>6[8:2],{8}8/4,,
||{8}1,2V86[8:2],,{16},{16}6<3[8:2],5,,4,,4w8[8:1],,{16},,
||
{16},,,,
{16}53,,2,4,3,,7,5,6,,2,4,3,,7/5h[8:1],,
{8}8-4[8:1],3-1[12:1],8,3,{16}5-1[16:2],,2,3,4,,,,
{4}2bV46[8:2]/8b,{8}6>2[16:3],7,8-4[8:1],,
{8}8,1V36[8:2],,6,7,8,1V74[8:2],3,
{4},{16}1b,,2,4,3,,7,5,
{16}6,,2,1,3,,7-4[8:1]/4,,{8},7,1-5[8:1],5-1[8:1],{16}1b,,,8b,,,{8}6b,
(175){384}3bqq4[4:6]*qq4[4:6],7bqq8[4:6],
{8},,,,,,,,,,,,,,,{16},{128},,,,,,,,
(170)
{16}8b-3[8:1]/2b,,,4,8<5[8:1],,2,,8-3[8:1],,{24}2,3,4,{16}8,,2,,
1h[8:1],,5,6,7/3h[8:1],,6,5,4/1h[8:1],,5,6,{16}7/3h[8:1],,6,5,
{16}4/1b-6[8:1],,,5,1>4[8:1],,7,,1-6[8:1],,{24}7,6,5,{16}1,,7,,
8h[8:1],,4,3,2/6h[8:1],,3,4,5/8h[8:1],,4,3,{16}2/6h[8:1],,3,4,
{16}5/8b-4[8:1],,4,3,2-5[8:1]/8,,1,,
2/6-1[8:1],,{16}7,,{16}36,,
2,,3b-8[8:1],,7,7,3
,,5,5,
1bV35[16:2],,7,7,1,,,,
{16}1b/3,8,7,6,3,2,1,8,
4,5,6,7,2,3,4,5,
8bqq5[8:5],,4b,,3b,,2b,,3b,,2b,,3b,,2b,,
{16}1b-6[8:1],,,5,1>4[8:1],,7,,1-6[8:1],,{24}7,6,5,{16}1,,7,,
8h[8:1],,4,3,2/6h[8:1],,3,4,5/8h[8:1],,4,3,{16}2/6h[8:1],,3,4,
{16}5/8b-3[8:1],,,4,8<5[8:1],,2,,8-3[8:1],,{24}2,3,4,{16}8,,2,,
1h[8:1],,5,6,7/3h[8:1],,6,5,4/1h[8:1],,5,6,{16}7/3h[8:1],,6,5,
{16}4/1h[8:1],,7,8,6h[8:1],,2,1,
3h[8:1],,{24}8,7,6,{16}5/2,,1,,
34,,6,5,7
,,3,4,
2,,7,8,6,,53,,
(176){16}1h[8:1]/2h[8:1],,,6h[8:1]/4h[8:1],,,{8}78,{16}2h[8:1]/5h[8:1],,,6h[8:1]/4h[8:1],,,{8}17,
(180){16}2,4,,{16}7,5,,35,35,,,{16}6,7,8,2,3,4,
(180){8}1b-6[8:1]/5b-2[8:1],,{4}1>5[16:2],{8}1p6[16:6]/7,,
{8}1,4h[8:2],,{16},,3,,2,,6/1h[4:1],,{16},,{32}7,6,5,4,3,2,1,8,
(182)
{4}3b-8[12:1]/7b<4[8:1],3-7[8:1]/7,1-5[8:1]/3,{8}16,,
{8}8-4[8:1],3-1[12:1],8,3,5<8[8:1],{16}2,3,4,,{8},
{4}3bV17[8:2],{8}7>3[16:3],6,5-1[8:1],,
{8}5,4V27[8:2],,7,6,5,4V61[8:2],2,
{4},
(181){16}4h[8:1],,7,5,6h[8:1],,2,4,3h[8:1],,8,2,6h[16:2],,3,,
4-8[8:1],,7-5[8:1],,4,,7,,2b-6[8:1],,,,25,,,,
{8}8bw4[8:1],,{4}8>6[16:4],{8}8/2,,
{8}1bp8[8:3],7b<2[16:4],,{16},,,,,,1w5[8:1],,{16},,
{4}1b,
{16}3b/7b,,6,5,6,,53,,82,,7,1,7,,46,,3V51[8:2],,7,,3,,6,,8<5[8:1],,2,3,4,,,,
2bV86[8:2]/8,,,,6<2[8:2],,5,,4-8[8:1],,,,4,,3pp2[8:3],,,,1,,8,,7,,6pp5[16:5],,1,,,,,,
(182){16}3b-8[8:1],,2,4,3,,7,,6b-1[8:1],,7,5,6,,2>5[8:1],,
{16},,2,,8-4[8:1]
,,4-8[8:1],,
8b,,,1b,
,,3b,,
(180){4}6b/2b,{16}2,1,2,1,(180){16}2,3,4,5,8,7,6,5,
(185){16}2h[8:1],,4,3,
7h[8:1],,5,6,
1h[8:1],,4,3,
6,,57,,
(180){16}8,7,6,5,
4/2,,6,5,
7,,3,4,{16}2,,8,8,
(180)
2,1,3,8,4,7,5,6,
{16}3,4,2,5,1-5[8:1],6,8,7,
{4}1b,
{16}7,8,7,1,
7,6,5,4,1,2,3,4,
7h[8:1],,5,6,
2h[8:1],,4,3,
8h[8:1],,5,6,
3,,42,,
1,2,3,4,
5/7,,2,1,
3,,7,8,
{16}6,,2,2,
4,5,6,7,2,3,4,5,
{16}1-5[8:1],8,7,6,5b/1b,,,,
(180){16}6bpp1[16:10],,,3,,,4,,2-4[8:1],,,,2,,,,
{16}5bqq1[8:5],,,7,,,6,,8-6[8:1],,,,8,,,,
{16}5bqq7[16:10],,,1,,,2,,8>2[8:1],,,,8,,,,(180)3,4,5,6,1,2,3,4,
(180)7,8,1,2,5,6,7,8,
(182){16}3/1bqq5[8:5],,,2,,,3,,4-2[8:1],,,,4,,,,
{16}6/1bpp5[8:5],,,8,,,7,,6-8[8:1],,,,6,,,,
{16}4/1bqq6[16:10],,,3,,,4,,5>3[8:1]*>3[8:1],,,,5,,,,(180)2,1,8,7,4,3,2,1,
(180)6,5,4,3,8,7,6,5,
(180)4v7[8:1]/8v3[8:1],,,{384},,,,,,,,,,,,,,,,,,,,,,4bpp1[8:10],8bpp5[8:10]*pp5[8:10],{16},,,,
{4},,,,,{32},,,,,,,{384}2bv5[8:1]*v5[8:1],8v5[8:1],{4},,,,
E
