&title=なにが悪い
&artist=結束バンド
&first=0
&des=阿抹AIMO
&wholebpm=122
&first_4=
&first_5=0
&lv_5=11+
&inote_4=
&inote_5=(122)
{1},
{16}1,2b/8b,,6,5,,3,4,3,5,,5,4,,4,5,,
{16}7h[16:3]/2b,,,5h[16:2],,6,5,,65,,43,,7>5[16:9]/8,,
{4}2b/1b,{8}7,7,7,7,7,78,71,
{8}7b/2b,4-1[8:1]/5,3,6,,45,3qq4[8:3],6h[8:3],,,,,
{8}18,27,36,45,,
{8}4-1[8:1]/5,3,6,,45,3qq4[8:3],6h[8:3],,,,,
{8}46,35,4<7[8:1]/2,,
{8}2h[4:1]/4,,1,8h[4:1]/2,,{16}1,1,8,,2,,
{8}3h[4:1]/7,,4,2/5h[4:1],,4,4/6h[8:1],{16}5,5,6-1[8:1],,
{8}5,4,3h[4:1],,{16}4,4,2,,35,,{8}6-1[8:1],5,4,3,
{8}12,,78,1,
{8}1/7h[4:1],,8,1h[4:1]/7,,{16}8,8,1,,7,,
{8}6h[8:1]/2,{16}5,,6,1,,28,,7,{8}7,{16}1>4[8:1],1,,,{8}6p1[8:1],6,,2-4[8:1]*<7[8:1],,,,
{16}8,,{8}27,37,47,36,25,{16}1,4,3h[8:1],,6,,45,,
{8}5b/6b,4b/7h[4:1],3,2,2b/5b,4b/3h[4:1],5,6,4b/7b,3b/8h[4:1],
{8}2,1h[8:1],{16}8,7,6,,45,,45,,
{8}3b/4b,2b-5[8:1]/5b,6,7-4[8:1],8,2,1,
{16}8>3[8:1],,7,7,,,6,,5<8[8:1],,4,4,,,3,,2<4[4:3],,
{16}1,2,,,,,,,,,,,,,1,,
{8}8,7,6,45,36,27,18,
{16}7b/8b-3[8:1],,,6,,,5,,3/4-7[8:1],,,2,,,1,,
{16}8/7-3[8:1],,,1,,,1,,3/2-6[8:1],,,4,,,4,,
{4}5<8[8:1],{8}4>1[8:1],,8,7,6,5b/1b,,2,2,8b<4[4:1]/4b,,{4},
{16}2h[4:1],,,,4,2,{8}5,5,35,46,57,5/7h[8:3],,8b,8b,,
{8}56,47,38,21,
{16}3bqq4[16:5]/8b,,,7,,,6,,6pp5[16:5],,,3,,,2,,
{16}2q5[16:5],,,1,,,8,,7p4[16:5],,,4,,,3,,
{4}2-7[8:1],3-6[8:1],{8}7,8,1,2b/7b,,5,5,3b/6b,,18,27,,
{8}18,2,17,8,12,8,{16}1-5[8:1]/2,,,8,1,,{8}8,27,36,4-8[8:1]/5,,
{16}4-2[8:1]/5,,,5,4-8[8:1],,,,45,,,5,4,3,5,,
{8}35,2,1-5[8:1]/8,7,6,7,8>3[8:1],,78,6,
{8}45,3,24,3,56,{16}3,4,,6,5,,
{8}81,7,68,7,12,{16}7,8,,2,1,1,
{16}2b/8b,,7,6,,3,4,3,5,,5,4,,4,5,,
{16}7h[16:3]/2b,,,5h[16:2],,6,5,,65,,43,,7>5[16:9]/8,,
{4}1b/2b,{8}7,7,7,7,7,78,71,
{8}2b/7b,5pp7[8:1]/4,6,3,,54,6pp5[8:3],3q2[8:2],,,,,
{8}81,72,63,54,,
{8}5pp7[8:1]/4,6,3,,54,6pp5[8:3],3q2[8:2],,,,,
{8}25,36,4-8[8:1]/7,,
{24}7,6,5>7[8:6],,,,,,
{1},,E
