&title=Merry Christmas Mr.Lawrence
&artist=sasakure.UK [原曲:坂本龍一]
&first=0.04
&des=Merry Christmas Mr.HP
&clock_count=4
&lv_5=14
&inote_5=(145)
{1},3-1-4-7-5[2:3],,1<4[2:3],,4-2-5-8-6[2:3],,8-5-3[2:3],
{8},,,,,,,,
{16}2b,,6,,4,,5,5,,,6,,6,,6,4,,4,5,,5,,5,3,,3,,,3,,3,4,,4,5,,6,,4,6,,6,5,,3,,3,4,,2,2,,6,,6,5,,5,4,,3,,
{24}3,4,3,
{16}5,5,5,,3,,3,4,,4,2,,6,,6,4,,4,5,,5,,5,4,,4,6,,4,,
{24}6,5,6,
{16}4,4,4,,3,,3,5,,5,3,,3,,3,5,,5,4,,4,,4,6,,6,4,,5,,
{24}4,3,2,1b-3-7-1-4-6-1-5[4:13],,,,,,
{4},,,
{1},,
{2},
{4},
{16}2,3,4,5,6b<1[4:1],,6,4,
{8}6,4,3,
{16},3,,,,,5,,,,
{8}34,2,6,4,
{48}7,6,5,,,,
{8}3,6,5,
{16}24,24,,1,
{8},1,6,2,
{24}5,3,5,,,,
{8}28,,17,
{24}2,4,3,5,4,6,
{16}5,7,7,,4,4,7,,26,,15,,,8>3[4:1]/4,,,,,5,,,,
{8}6,6,7,7,
{48}8,7,6,,,,
{8}3,6,2,
{16}5,5,,1,,,5,,6,,3,,
{24}6,4,6,,,,
{8}5,,35,
{16},2,2,,6,,1b/8b,,7,5,
{8}7,5,6,
{16},6,,,,,4,,,,
{8}65,7,3,5,
{48}2,3,4,,,,
{8}6,3,4,
{16}75,75,,8,
{8},8,3,7,
{24}4,6,4,,,,
{8}71,,82,
{24}7,5,6,4,5,3,
{16}4,2,2b,,5,5,2,,73,,84,,,1<6[4:1]/5,,,,,4b,,,,
{8}3,3,2,2,
{48}1,2,3,,,,
{8}6,3b/6b,7,
{16}4,4,,8,8b,,4,,3,,6,,
{24}3b,5,3,,,,
{8}4,,64,
{16},7,7,,3,,
{8}7,1-6[8:1],6V84[4:1],1-3[8:1],,B1,,6q8[2:1],,6/3<7[4:1],3,3,,E7,1,2-5[8:1],5V37[4:1],2-8[8:1],6,E3,,6h[4:1],,4h[4:1],,5q2[4:1],6<3[4:1],5,,A2,4,5,6bV84[4:1],4-8[8:1],6,4,,26,,1q3[2:1],,1/4<2[4:1],4,4,,E2,4,5,6>6[2:1],4>6[8:3]*>6[8:3],2<6b[4:1],8^6[8:1],,C,,1>4[4:1],,6,7,8,,48,73,62,
{16}1b,5,1,,7,3,6,2,5,3,6,4,6,5,7,,2,2,4,3,5,4,6,3,7,7,4,6,4,5,3,3,4,4,2,5,3,6,4,7,8,8,5,8,8,4,8,8,3,7,2,6,3,7,4,5,2,6,4,5,2,7,3,6,1b,8,1,,2,6,3,7,4,6,3,5,3,4,2,,7,7,5,6,4,5,3,6,2,2,5,3,5,4,6,6,5,5,7,4,6,3,5,2,1,1,4,1,1,5,1,1,6b,2,7,3,6,2,5,4,7,3,5,4,7,2,6,3,4bx/5bx,,2,,8,,1,1,,,2,,2,,2,8,,8,1,,1,,1,7,,7,,,7,,7,8,,8,6,,6,,6,2,,2,1,,2,,2,1,,3,3,,7,,7,8,,8,1,,2,,3,6,3b,,5,,5,,5,3,,3,,3,4,3,5,4,6b,,6,,4h[8:1],,7,4,7b,,7,,6,,2,4,3,5,4,,7,,5,56,,3,,,3h[4:1],,
{24}2,1,8,
{2}7b>7[2:1]*>5b[8:3]*>3[4:1]*>1b[8:1],,
{16}3,,3,,3,,3,,3,4,3,4,3,4,3,4,3,,3,,3,4,3,4,3h[8:1],,4,,6h[8:1]/5h[8:1],,,,6,,6,,6,5,6,5,6,5,6,5,6,,3,,3,,3,4,3,4,3,4,3h[8:1],,5,,2h[8:1]/7h[8:1],,,,1b/8b,,18,,18,,18,,1,8,1,8,2,7,2,7,1b/8b,,2,7,2,7,3,6,3,6,3,,4h[8:1]/5h[8:1],,,,4b/5b,,4,5,4,5,4,5,3b/6b,,36,,27,,27,,
{32}8b/A2f,D3,A3,D4,A4,D5,A5,D6,A6f,D7,A7,D8,A8,D1,A1,D2,A2f,D3,A3,D4,A4,D5,A5,D6,A6f,D7,A7,D8,A8,D1,A1,D2,4b,,,,4<7[8:1],,,,
{16}3,,4,,3,,,4w8b[8:1],,,,,,,,,28,,34,,17,,54,,56,,7,,28,,3,,45,45,,6w2b[4:1],,,,,,,,,,,,,38,,,,28,,17,,68,,,,5,,5>2[8:1],,
{16}6,,5,,6,,,5w1b[8:1],,,,,,,,,71,,65,,82,,45,,43,,2,,1,7,1,7,2,6,2,6,3,5,3,5,4,6,3,7,
{32}2,3,4,5,6,7,8,1,2,3,4,5,6,7,8,1,26,5,4,3,2,1,8,7,6,5,4,3,2,1,8,7,65,,,,
{16}56,,47,,26,,17,,8,8,8,8,8,,26,,26,,3,5,3,,3,6,3,,47,,38,,27,,18,,1,7,1,6,1,,2,7,4,,8,5,8,,47,,36,,2,5,2h[4:1],,4,,8h[4:1],,6,,5,,47,,12,,35,,46,,5,5,5,5,5,,36,,36,,24,,17,,2,8,2,8,2,,37,,
{24}4,5,4,5,4,5,
{16}4,5,4,5,3,6,3,6,2,7,2,7,
{24}1,2,3,4,5,6,7,8,1,2,3,4,
{32}7,6,5,4,3,2,1,8,7w3[8:1]*w3[8:1],6,5,4,3,2,1,8,7b/Cf/B7/B4/B3/B2/E4/E3,
