&title=ストロベリーレイン
&artist=野水いおり
&first=0
&des=Merjoex
&lv_5=12+
&inote_5=(170){4},,,,2,
4,6,8,
2b/7b,5,3,1,
7b/2b,4,6,8,
{8}2,1,{4}1,{8}4,5,{4}5,
7b/2b,5,3,1,
{1}7b/2b-6-3-8-5-2[4:3],
7b-3-6-1-4-7[4:3],
{8}2,1,{4}1,{2}8<7p5[2:1]/1>2q4[2:1],
{4},,7,3,
1b/6b,3,5,4pp6[0.3529##0.3529]*qq2[0.3529##0.3529],
{8}4b,,,,,7,2h[4:1],5,
{4}6,{8}E6,E5,{4}E4,5pp5[8:3]/4qq4[8:3],
{8},,,,,2,{4}7,
4b,8-2[4:1],8-6[4:1],8-4[4:1],
{8},,,,,,6,3,
7>1v4[2:1],4,{4}4,{16},,,,,,,,
{1}8b-5[2:1]/1bp4[2:1],
3-5-1[2:1]/7-5-1[2:1],
{8}3h[4:1]/5h[4:1],,,4h[4:1]/6h[4:1],,,{4}5w1[2:1],
{8},,,,,,4,5,
{1}4qq5[2:1]/6pp5[2:1],
7v5[2:1]/1v3[2:1],
Cfh[1:1],
{4},6,{8},3,{4}3,
{8}Cf,,,5h[8:3]/8h[8:3],,,,4h[8:3]/1h[8:3],
,,,,{4}5,{8}4,5,
{4}6-3[4:1]*>3[4:1],{8},,,,C,E2/E8,
,,{4}8V64[4:1]/1v3[4:1],,,8-5[4:1]*>5[4:1],
{8},,,,6,4,
{1}5<8[2:1]/4q1[2:1],
8q5[2:1]/1>4[2:1],
{8}2,3,7/4,3/8,{4}2/1,{8}2/7h[4:1],3,
4b<4b[2:1],,,,,,,6h[8:3],
{4}3,4,5,{8}4,3/5,
{4}2-4-8[4:1]/6-4-8[4:1],{8},,,,6/2,8/4,
,,{4}1pp1[4:1]/8qq8[4:1],{8},,,,5h[2:1]/4h[2:1],
,,,,5/3,6/4,3/7,
2/8-5[4:1],,,,,4,3/5,2/6,
{4}1/7,3/6,5/8,{8}8q5[4:1]/1p4[4:1],1/8,
1/8,{16},,,,3,4,{8}3,5/2,6/1,8/7,
{1}Cfh[1:1],
{8},,,,1,8,1v2>5[8:3]*v8<5[8:3],8,
1bx,,,,,8,8<5[4:1]*>3[4:1],8,
,,,,3/6,4/5,3/6,7/2,
{4}1/8,{8}8-6[8:1]/1-3[8:1],8/1,,,,5h[8:3]/4h[8:3],
,,,,6,5,4/7,3/8,
1/2,,,7/3h[4:1],6,5h[4:1],2,1,
,,{4}6pp5[4:1]/4qq5[4:1],{8},,,,7p5[8:3]/1q3[8:3],
,,,,,,6b,
,3,2,1,8,1,8v7<4[8:3]*v1>4[8:3],1,
8bx,,,,,6/5,7/4,3h[8:3]/8h[8:3],
,,,,6/2,3/5,4,4,
4,,,7v5[4:1]/1v3[4:1],,,,,,5/2,
{4}7/4,{8}1,2/8,7qq8[4:1]/3qq4[4:1],7/3,
{2}7/3,{8}5,4/6,7pp5[4:1]/3qq5[4:1],7/3,
{2}7/3,4v6[4:1]*v2[4:1],
{4},5,{8}4/7,5/2h[4:1],,6h[4:1],
{16},,4,5,{8}4,6/3,7/3,1/5,2/6,3/7,
{4}4/8h[2:1],3,{8}2,3/6,5pp7[4:1]/4qq2[4:1],5/4,
{2}4/5,8v5[4:1]/1v4[4:1],
{16},,,,,,6,5,{8}6,7/4,8/3,1/2,
{16},,3,5,3,5,3,5,3,,,B6,,,{8}C,
{4}B3,7,5,3,
8b/1b,2,4,6,
2b/8b,7,5,3,
1b/7b,5,{16}3,,,,,1,,,,,E8,
C,{4}E4,
E
