&title=ローリンガール
&artist=wowaka
&first=0.02
&des=MYOU
&clock_count=4
&lv_6=13+
&inote_6=(195){4},,,,3/4,
3/4>5[4:5],{2},,,{4}3/4,
3/4>5[4:3],{1},{8}3,
3,{4}3,
6/5,6/5<4[4:5],{2},,,{4}6/5,
6/5<4[4:3]*q4[4:3],{1},{8}6,
6,{24}6,5,4,3,2,1,
{4}4b/8b<5[8:1],3h[4:1],{8}2,1,8,1/7h[4:1],
,6,5,4,3/5,{16}3,4,{8}3,{16}5,4,
{4}5<8[8:1],2h[4:1],{8}3,4,5,4/6h[4:1],
,7,8,1,8/2,8/2,{4}2/8<5[8:1],
3>8[8:1],6h[4:1],{8}5,4,3,4/2h[4:1],
,1,8,7,6/8,{16}5,4,{8}5,{16}2,1,
{4}2>5[8:1],7h[4:1],{8}8,1,2,1/3h[4:1],
,4,5,6,{16}7/5,8,1,2,3,4,5,6,
{4}7/1q5[8:1],8h[4:1],{8}7,6,5,6/4h[4:1],
,3,2,1,8/2,{16}7,8,{8}6,{16}4,5,
{4}3p7[8:1],5h[4:1],{8}6,7,8,7/1h[4:1],
,2,3,4,5/3,5/3,{4}5/3<6[8:1],
8p4[8:1],1h[4:1],{8}2,3,4,3/5h[4:1],
,6,7,8,7/1,{16}2,1,{8}3,{16}5,4,
{4}6q2[8:1],4h[4:1],{8}3,2,1,2/8h[4:1],
,7,6,5,{16}6/4,3,2,1,8,7,6,5,
{4}4>1[8:1],1,7<4[8:1],4,
2<7[8:1],7,5>2[8:1],2,
8h[4:1],6h[4:1],{8}4,4pp8[2:1],,3,
{4}3,2,2,2/6,
5<8[8:1],8,2>5[8:1],5,
7>2[8:1],2,4h[4:1],{8}8,8qq5[2:1],
{4}4,4,3,{8}2,2pp5[2:1],
{4}6,6,7,8,
3/7<4[8:1],4,1<6[8:1],{8}5,5pp1[2:1],
{4}4,2,3,2,
1/2,7/8,6/5,{8}4/3,4pp7[2:1],
{4}2,2,2-8[8:1],6,
4<8[4:1],8>4[4:1],4<8[4:1],8>4[4:1],
4,8,4-2[8:1]*-6[8:1],4,
8<4[4:1],4>8[4:1],8<4[4:1],4>8[4:1],
8,4,{16}6,5,4,3,2,1,8,7,
{4}5/6<1[8:1],2h[4:1],{8}3,4,5,4/6h[4:1],
,7,8,1,2/8,{16}3,4,{8}3,{16}6,5,
{4}7<4[8:1],3h[4:1],{8}2,1,8,1/7h[4:1],
,6,5,4,5/3,5/3,{4}3/5<8[8:1],
2q6[8:1],7h[4:1],{8}8,1,2,1/3h[4:1],
,4,5,6,7/5,{16}8,1,{8}8,{16}2,1,
{4}3p7[8:1],5h[4:1],{8}4,3,2,3/1h[4:1],
,8,7,6,{16}3/5,6,7,8,1,2,3,4,
{4}5<8[8:1],8,{8}2>5[8:1],3,{4}4,
7>2[8:1],1,{8}4<7[8:1],5,{4}6,
1h[4:1],3h[4:1],{8}5,5qq1[2:1],,6,
{4}6-8[8:1],6,{8}2,2,{4}3/1<6[8:1],
4>1[8:1],1,{8}7<4[8:1],6,{4}5,
2<7[8:1],8,{8}4,4,{4}5/3pp6[2:1],
8,7,{8}8,8,{4}1/7pp2[2:1],
4,3,{8}4,4,{4}5/3-6[8:1],
8<5[8:1],8<1[4:1],{8}8,{4},{8}5,
{4}5<8[8:1],5<4[4:1],{8}5,{4},{8}8h[4:1],
,1,2,3,4,5,6,7/8,
,1/2,{4}1/2V46[8:1],6>2[8:1],1,
7qq6[16:3],8b,2qq1[16:3],8b,
4pp5[16:3],8b,3qq2[16:3],8b,
{8}4,5,6,7,8,1,2,3,
{16}8/4,7,6,5,4,3,2,1,8/4,5,6,7,8,1,2,3,
{4}8b<5[8:1]/4b>1[8:1],8b/4b>5[4:1],{8}8b,{4},{8}1b,
{4}1b>4[8:1]/5b<8[8:1],1b/5b<4[4:1],{8}1b,{4},{8}8h[4:1],
,6,7/5,4,5/3,2,3/1,{24}8,7,6,
5,4,3,2,1,8,7,6,5,4,3,2,{4}1w5[8:1],1,
3v5[8:1]/7v5[8:1],7/3<8[16:3],{8}1h[4:1],{4},{8}7/1,
{4}2v4[8:1]/6v4[8:1],2/6>1[16:3],{8}8h[4:1],{4},{8}8/2h[4:1],
,4,5/3,6,7/5,8>6[16:3],7/1,2b,
,1,8>3[8:1],7qq7[16:3],8b,7b,{4},4>1[8:1]/8<5[8:1],
8/4>5[4:1],{8}8,{4},{8}1h[4:1],
,5<8[8:1],1>4[8:1],5,1,{4},{8}2/6h[4:1],
,4,5/3,2,1/3,8,7/1,6-3[8:1],
,2,{4}2V46[4:1],6V82[4:1],1,
6h[4:1],1b,4h[4:1],1b,
7h[4:1],1b,2pp3[16:3],1b,
7pp8[16:3],1b,5qq4[16:3],1b,
6pp7[16:3],1b,5-2[8:1]*-8[8:1],5,
3b>8[8:1]/7b<4[8:1],7b/3b>4[4:1],{8}1b,{4},{8}2b,
{4}2b>5[8:1]/6b<1[8:1],2b/6b<5[4:1],{8}8b,{4},{8}6h[4:1],
,8,7/1,2,1/3,4,5/3,{24}6,7,8,
1,2,3,4,5,6,7,8,1,2,3,4,{4}5w1[8:1],5,
3pp5[8:1]/7qq5[8:1],7/3<8[16:3],{8}1h[4:1],{4},{8}7/1,
{4}2pp4[8:1]/6qq4[8:1],2/6>1[16:3],{8}8h[4:1],{4},{8}8/2h[4:1],
,4,5/3,6,5/7,8>6[6:1],7/1,2b,
,1,8-3[8:1],7p2[16:3],8b,7b,{4},1<6[8:1]/5>2[8:1],
5>6[16:3],{8}8,{4},{8}1h[4:1],
,4<7[8:1],8>3[8:1],4,8,{4},{8}7/3h[4:1],
,1,8/2,7,8/6,5,6/4,3-6[8:1],
,7,7V53[4:1],1,{4}3V17[4:1],8,
4>1[8:1],4b/8b,5>2[8:1],5b/8b,
6>3[8:1],6b/8b,7<4[8:1],7b/8b,
{16}2,1,2,1,3,8,3,8,4,7,4,7,5b,6,5b,6,
{32}4,3,2,1,8,7,6,5,4,3,2,1,8,7,6,5,{8}4b>8[8:1],8b<4[8:1],
