&title=Ad astra per aspera
&artist=Rabbit House
&first=1.5
&des=北树大川 vs chara
&clock_count=4
&lv_5=14+
&inote_5=(197)
{8},,,,,,,,
{16},6b/4b,,,5,,,4h[16:
5]/6,,6,,,5,6,7,8,1,2,3,4,1,2,3,4,5,6,7,8,5x,6x,7x,8x,,3b,,,4,,,5h[16:
5]/3,,3,,,4,3,2,1,8,7,6,5,8,7,6,5,4,3,2,1,4,3,2,1,
{16},6b/4,,5,,3,,7,,2/8,,3,,6,,4,,1b/7b,,4/5,,2/3,,4/6,,2b/8b,,7,,1,,3,4,3,4,3,4,3,4,3,4,3,4,3,4,3,5,3,6,
{32}7b,8b,1b,2b,3b,4b,5b,6bx,7bx,8bx,1bx,2bx,3bx,4bx,5bx,6bx,7bx,8bx,1bx,2bx,3bx,4bx,5bx,6bx,7bx,8bx,1bx,2bx,3bx,4bx,5bx,
{8},,
{16},B1/B8/Cf/B7/B2/B6/B3/B5/B4,
{8},,,,,,,
{16},5,,,,5,,,,5,,5,,1,,,,1,,,,2,,,,2,,,,6,,,,6,,,,5x,,5x,5x,5x,
{16},,,8h[16:
2]/1-5[0.3##0.1],,,,8h[16:
2]/1-3[0.3##0.1],,,,7h[16:
2]/1-5[0.3##0.1],,,,7h[16:
2]/1-3[0.3##0.1],,,,7h[16:
2]/1-5[0.3##0.1],,,,6h[16:
2]/1-3[0.3##0.1],,,,6h[16:
2]/1-5[0.3##0.1],
{16},,,,,,,7-3[0.2##0.1],,7,,8-4[0.2##0.1],,8,,1-5[0.2##0.1],,1,,2-6[0.2##0.1],,2,,3-7[0.2##0.1],,3,,4x,,,,4xw8[0.15##0.1],,4b,
{16},,,,,8,7,6,5,1,2,3,4,1,8,7,6,1,2,3,4,1,8,7,6,5,8,7,6,5,4,3,2,1,4,3,2,1,8,7,6,5/1,2,3,4,1/5,8,7,6,1/5,2,3,4,5/1b,6,7,8,1/5b,2,3,4,1b/5,6,7,8,1/5b,,,,2,3,4,5,1,2,3,4,8,1,2,3,1,2,3,4,7,6,5,4,8,7,6,5,1,8,7,6,8,7,6,5,
{18}7x/3x,,,2x/6x,,,3/7b,,,2b/6,,,4/7b,,,2b/5,,,6h[18:
2]/C,,,2h[18:
2]/C,,,7h[18:
2]/C,,,3h[18:
2]/C,,,8h[18:
2]/C,,,1h[18:
1]/C,,
{16},1b,8,2,7,1,8,2,7,3,6,4,5,2,4,3,4,2,6,1,3,2,8,3,7,4,6,4,5,7,5,7,3,4,3,4,3,5,4,6,5,7,6,8,1,7,2,8,3,1b,5,1,5,2b,6,2,6,3b,7,3,7,4b,8,4,8,7,8,6,8,5,8,4,8,3,8,2,8,1,8,1,7,1,6,1,5,1,4,1,3,1,2,1,1,1,1,1,1,6x/7bx,,,1b/2,,,3/6b,,,4b/8,,,1/5b,,,
{18},6h[18:
2]/C,,,2h[18:
2]/C,,,7h[18:
2]/C,,,3h[18:
2]/C,,,8h[18:
2]/C,,,1h[18:
1]/C,,8b<1[0.01##9.4],
{16},,,,A8,,A7,,,,E1,,B8,,B7,,E7,,,,,,B1,,,,,,C,,,,B6,,,,,,,,,,,,E7,,A6,,B6,,,,,,E6,
{16},,,,,6,,5,,6,,,,5,,4h[16:
10],,,,1,8,7,6,5h[16:
2],,,,,,3h[16:
2]/4h[16:
2],,,,,,4h[16:
2]/5h[16:
2],,,,,,5h/6h,,,,,,,,
{18},
{16},,,8,,8,,7,,7,,6,,6,,5,,5,,4,,4,
{16},8b,7,6,5,1,2,3,4,1,8,1,8,2,7,2,7,3,6,3,6,1,2,3,4,5,6,7/2x,,8<5[0.2##0.2],,1,,2,,3,,4>1[0.2##0.2],,5,,6,,7,,8,,1,,2,,3,,4,,5,6,7,8,1,2,3,4,5,6,2b,1,2,1,3/8,,3/8,,4/7,,4/7,,5/6,,5/6,,7b/8b,,7/8,,1/6,,1/6,,5/2,,5/2,,3/4,,3/4,,5b/3,,3,,3,,3b/6,,6,,6,,6b/2,,2,,2,,7b/2,,7,,7b,,2/7,,1,8,1,8,1,8,
{16}3bh[18:
2]/6bh[18:
2],,,4/5,2,,1,,1,,2,,3/8,,3,4,2h[18:
2]/5h[18:
2],,,3/4,8,,7,,6,,1,,2/5,,8,,6h[18:
2]/5h[18:
2],,,,5/6,,7,7,,3,1,3,1,2h[16:
2],,8,1h[18:
2]/7h[18:
3],,,1,,1,8x,8x,7,6,5,3,4,3,4,3,1bh[18:
2]/2bh[18:
2],,,5/4,7,,8,,8,,7,,6/1,
,6,5,7h[18:
2]/4h[18:
2],,,6/5,1,,2,,3,,8,,7/4,,3/5,,8b/4b,,,,1b/5b,,,,7h[16:
1]/C,,,3h[16:
1]/C,,,6h[16:
1]/C,,2h[16:
1]/C,,,8h[16:
1]/C,,,1h[16:
1]/C,,4b/5,,,3/6b,,,2b/7,,1b-4[0.27##0.1]/8b-5[0.27##0.1],,,,1b/8b/Cf/B8/B1/B7/B2/B6/B3/B5/B4/E7/E3,
{16},,,,,,,7/4,,7,8,6h[18:
2]/1h[18:
2],,,7/8,4,,3,,2,,5,,6/1,,4,,2h[18:
2]/1h[18:
2],,,,1/2,,3,3,,7,5,7,5,6h[16:
2],,4,5h[18:
2]/3h[18:
3],,,5,,5,4x,4x,3,2,1,7,8,7,8,7,5bh[18:
2]/6bh[18:
2],,,1/8,3,,4,,4,,3,,2/5,
,2,1,3h[18:
2]/8h[18:
2],,,6/5,1,,2,,3,,8,,7/4,,3/5,,5/3bh[16:
2],,5,,6bh[16:
2]/4,,4,,1,8,2,7,1,8,2,7,4b/C,,7h[16:
1]/B2,,,7h[16:
1]/B4,,,3h[16:
1]/B8,,,3h[16:
1]/B6,,,7h[16:
1]/C,,8bh[16:
32],
{32}1,2,3,4,5,6b,7,1,2,3,4,5,6,7b,1,2,3,4,5,6,7,1b,2,3,4,5,6,7,1,2b,3,4,5,6,7,1,2,3b,4,5,6,7,1,2,3,4b,5,6,7,1,2,3,4,5b,6,7,1,2,3,4,5,6,7,
{16}2,3,4,5/3,4,5,6/4,5,6,7/5,6,7,8/6,7,8,1/6bh[16:
1],2,3,,2/7bh[16:
1],3,4,,2/7bh[16:
1],3,4,,2/7bh[16:
1],3,4,
{16},5,4,5,6,5,3,5,7,5,2,5,8,5,1,5,2,6,3,7,4,8,1,5,2,6,3,7,4,8,
{32}1,,2x,,3x,,4x,,5x,1bx,5x,1bx,5x,1bx,5x,1bx,5x,1bx,5x,1bx,5x,1bx,5x,1bx,5x,1bx,5x,1bx,5x,1bxw5[0.25##0.75]b,5x,1bx,5x,1bx,5x,1bx,
{16},,,,,,,,,,,,,,,,,
{16}E8,,E2/D2,,E6,,B8,B1,B2,B3,B4,,B5,,E7,,B7,,B8,,B1,B2,E3,B3,B4,E5,B5,E6,Cf,
{16},,,,4h[18:
2]/3h[18:
2],,,8/7,,6,6,,2,4,2,4,3h[16:
2],,5,4h[18:
2]/6h[18:
3],,,4,,4,5x,5x,6,7,8,2,1,2,1,2,4bh[18:
2]/3bh[18:
2],,,8/1,6,,5,,5,,6,,7/4,
,7,8,6h[18:
2]/1h[18:
2],,,7/8,4,,3,,2,,5,,6/1,,2/8,,5b/1b,,,,4b/8b,,,,7h[16:
1]/C,,,3h[16:
1]/C,,,6h[16:
1]/C,,2h[16:
1]/C,,,8h[16:
1]/C,,,1h[16:
1]/C,,4b/5,,,3/6b,,,2b/7,,1b-4[0.27##0.1]b/8b-5[0.27##0.1]b,,,,1b/8b/C/B8/B1/B7/B2/B6/B3/B5/B4/E7/E3,
{16},,,,,5/3h[16:
2],,6,7,8,,1/2,,7/1,3/5,4,,2,,1x,1x,7,,4h[16:
2]/6,,5,,3/6,,1/8,,5h[16:
2]/6,,2,,8,,7,7,1h[16:
2]/2,,2,,3h[16:
2]/4h[16:
2],,,5b/6b,,8b/7b,,1b/2b,,3b/4b,,5,6,5,6,5,6,7b/1,,1/8,3,,4,,4,,3,,2/5,,2,1,3h[18:
2]/8h[18:
2],,,6/5,1,,2,3,3,,8,6/1,,2/8,7x,6x,8/2bh[16:
2],,8,,7bh[16:
2]/1,,1,,4,5,3,6,4,5,3,6,8b/C,,3h[16:
1]/B7,,,2h[16:
1]/B6,,,7h[16:
1]/B3,,,6h[16:
1]/B2,,8h[16:
1]/B4,,,
{32}8b/A8f/4x,1,2,3,4,5,6,7,8,1,2,3,4,5,6,7,8,1,2,3,4,5,6,7,8,1,2,3,4,5,6,7,8,1,2,3,4,5,6,7,8,1,2,3,4,5,6,7,8,1,2,3,4,5,6,7,8,1,2,3,4,5,6,7,8,
{32}1,2,3,4,5x/1b,6x/2x,7x/3x,8x/4x,1x/5x,2,3,4,5,6,7,8,5x/1b,6x/2x,7x/3x,8x/4x,1x/5x,2,3,4,5,6,7,8,5x/1b,6x/2x,7x/3x,8x/4x,1x/5x,2,3,4,5,6,7,8,5x/1b,6x/2x,7x/3x,8x/4x,1x/5x,2,3,4,5,6,7,8,5x/1b,6x/2x,7x/3x,8x/4x,1x/5x,,,,,,
{16}2,1,2,1,3,4,3,5,6,5,6,8,7,8,1,8,1,8,2,1,2,5,6,5,6,4,5,4,5,3,4,3,4,3,1,8,1,8,4,3,4,2b,4,3,4,3,4,3,4,1b,4,3,4,8b,4,3,4,7b,4,3,4,6b,4,3,4,5b,6,4,3,7,2,8,1,3,2h,4,3h,5,4h,6h,5,7,6h,8h,7,1,2h,6,3h,5,6h,5,3h,4,3,1,7h,1b,7h,2,8h,2,8h,4,7h,1bh,6,3,8h,2h,5,4,6h,1b,5h,3,7h,2b,8h,1h,5,4bh,8,2,6,3b,7,
{16}3h,5,1bh,7h,4,6h,2,8h,3h,5,1h,4,8h,6,2h,7h,3,1h,5b,7h,3,5h,4h,6,2h,8,4h,6,2h,6h,3,7h,3,
{32}1b/5b,2,3,4,5,6,7,8,1,2,3b,,,,,,8b/4b,7,6,5,4,3,2,1,8,7,6b/2b,,,,,,
{48}1b,2,3,4,5,6,7,8,1,2,3,4,5,6,7,8,1,2,3,4,5,6,7,8,1,2,3,4,5,6,7,8,1,2,3,4,5,6,7,8,1,2,3,4,5,6,7,8,
{16},6b/4b,,,5,,,4h[16:
2]/6,,6,,2,8,4,6,3,1,2,8,1,7,8,6,3,4,3,6,5,6,1,8,1,,3b,,,4,,,5h[16:
2]/3,,3,6,5,6,3,3,8,7,8,2,2,8,8,6,1,1,7,2,2,8,3,3,1,,
{16}1b/8b,,4/5,,1/2,,5/6,,1/2,,5/6,,2/3,,6/7,,2bh[16:
2],,C,,1h[16:
2],,C,,8bh[16:
2],,C,,7h[16:
2],,C,,
{16}1,8,1,8,1,8,1,8,1,8,1,8,1,8,1,8,
{32}1,2,3,4,5,6,7,8,1,2,3,4,5,6,7,8,1,2,3,4,5,6,7,8,1,2,3,4,5,6,7,8b>8>1[0.01##2.4],
{16}1h[16:
2],,B1,,2h[16:
2],,B2,,3h[16:
2],,B3,,4h[16:
2],,B4,,5h[16:
2],,B5,,6h[16:
2],,B6,,7h[16:
2],,C,,,,C,
