&title=ブッキッシュタウンヒッピー
&artist=HaTa
&first=-0.03
&des=日终
&des_5=日终
&lv_5=14
&inote_5=(164){4},{16},,,,,,,,,,,,,5x,
{8}4x,{16}7x,8,,1x,8,7,{8}6,{16}4/5,3,,2,
4,5,{8},7/2x,{16}6,4,,1,{8}2,{16}7,5,,,,1,
2,3,,8,7,6,,6,3,5,,1,8,5,
,5/7,{8},4,{16}5,4,,6,{8}5,{16}2,1,,,,7,
6,5,,4,3,2,,2,3,4,,6,7,8,
,5/4,,4,{8},{16}7,7,,2,{8}2,{16}6/4,4/6,,,,4,
5,3,,5,4,6,,4,3,2,,5,6,7,
,8/1,,1/8,{8},{16}3,4,,8,{8}7,{16}2,1,,,,7-4[16:17]/1-7-3[16:17],
{8},,,,,,,,,,,{16}4,
5,4,5,4,5,4,5,
{8}3b/6b,{16}3,4,{4}3-8[0.1829##0.0915],{8}2/5,4,5/2,5,
7,8,1,2,{16}5,4,{8}5,3,4,
6,{16}6,5,{4}6-1[0.1829##0.0915],{8}7,7/4,7,7/2,
8/1-5[16:1],2,1/8-4[16:1],7,8,6,6/3,4,
8/1,{16}2,1,{32}2-5[0.1829##0.0915],{16},,,{32}1/8,,,,7/1,,,,6/1,,,,5/1,,,,,,,,4,
,,,2,,,,2,,,,6,,3,,5,,,,7/3,,,,5,,,,8/2b,
,,,7,,8,,7-4[0.1829##0.0915],,,,,,,,8x,,,,8xpp4[8:1],,,,6,,,,5,,,,6,
,,,5,,,,5,,,,7-1-5[8:1]/2-8-4[8:1],,,,7x/2x,{16},,,,,8/1,,8/1-4[0.1829##0.0915],
,,,7/8-5[16:1],,3,,1/8b,,,,,,5/7h,,8/5-2[0.1829##0.0915],
,,,,,4,,7/4,,5/2p6[16:1],,5,,2,,7/4b,
,,,5h[8:1]/2V47[16:1],,2,,5/2bx,,,,8/1>5[16:1],,7,,6,
,,,7/8>3[16:1],,1,,8/6>3[16:1],,7,,6,,7/8,,6/4b,
,,,5/3,,5/3,,5b/3-8[0.1829##0.0915],,,,,,7/4,,5b,
,,,,,3/2<7[16:1],,1,,2/4<7[16:1],,4,,4,,2b/1-5[0.1829##0.0915],
,,,3/2-6[0.1829##0.0915],,,,4/3-7[0.1829##0.0915],,,,5/4-8[0.1829##0.0915],,,,3,
,5/3,,4,,4/7,,5/6,,,,,,6,,5/7b,
,,,5/1>5[16:1],,8/3,,1,{4},{8}6,3b/7>1[0.1829##0.0915],
{4},{8}2/1<5[16:1],3,4,4,5,6/3b,
,5/8-4-8b[4:1],6/1,5/8b,{4},{8}7,6/2-5[16:1],
7,5/2<7[16:1],6,6/2-6[16:1],3,2-5[16:1],4,2b,
,5/8h[8:1],5,7/3,,5/1h[8:1],7,5/2h[8:1],
5,5/3h[8:1],5,7/2h[8:1],7,5,8h/2h,2b-5b[16:1],
,7b-4b[16:1],,1b<6b[16:1],,1,2,3,
4,5,6,{16}7/3,4,5,6,7/3,6x,5x,4x,{8}3x<6[16:1],
,3,2,{16}3,3x,4,4,{8}5/6x,{16}8x,8x,3,2,
3,4,3,2,3,4,{8}3,5/6,8/1,{32},,,2<7[16:1],,,,,,,,2,
,,,3,,,,6,,6,,5,,5,,4,,4,,3,,3,,2,,2,,1,
,1,,2,,2,,3,,3,,4/6,,,,,,,,,,,,,,,,4/8h[4:1],,,,,,,,6,
,,,6,,,,8,,1,,7,,2,,6,,3,,5,,4,,7x,,6,,7x,
,8,,7x,,6,,7x,,8,,7x/5x,,,,4/7x,,,,7/3,{16},,,1xh[8:1],,2xh[8:1],
,3xh[8:1],,4xh[8:1],,5xh[8:1],,6xh[8:1],,7xh[8:1],,,,6b,5,6x,
7x,2b/6x,5x,6x,7,6/2b,,,,,,,,5/4,,6/4,
,7/4,,8/4,,3/8>3[0.2744##0.0915],{8}3,{16}8,{8},{16}5/7-4[0.1829##0.0915],,3-8[0.1829##0.0915],,6-8[0.1829##0.0915],
,3-1[0.1829##0.0915],,5-8[0.1829##0.0915]*v2-4[4:1],,5,,5,{8}6,{16}8,8,,2-8[0.1829##0.0915],,6-4[0.1829##0.0915],
,3-7[0.1829##0.0915],,8-4[0.1829##0.0915],,8,,1,1,{8},{16}7/4bh,,7/3,,7/2,
,7/1,,6/4h[8:1],,7-3[16:1],{8},{16}8,7,{32},1,,,,4/7h[8:1],,,,4,,,,6/1,
,,,2/7v4-2[0.4573##0.2744],,,,6,,,,,,7,,,,,,8,,,,3/6-8[16:1],,,,5,,,,6/3-1[32:1],
,,,4,,,,3/6pp6qq6[0.2744##0.3659],,,,,,6,,,,,,1x,,,,2x,,,,2,,,,4,
,,,4,,,,6,,,,6,,2/8,,,,,,2/8,{16},4/5,3,4,3,
{4}1/7,{16}4/5,6,5,6,{4}2/8b,6/3,
{8}4,2,{4}5/2-5[0.1829##0.0915],{8},8,{4}6b/8-3[0.1829##0.0915],
{8},3,4/6,5,6/5,2,{4}2/5b,
{8}6/3,6/3,{4}7b/3b-5[0.1829##0.0915],{8},2-6[0.1829##0.0915],{4}1b-7[0.1829##0.0915],
{8},6,3/7,6/5,,3,{4}6/3b,
{8}8-4[16:1],2/6,{4}8,{8},6/2b,{4}6/2-5[0.1829##0.0915],
{32},,,7-4[16:1],,,,6,,,,7/2-8[16:1],,,,1,,,,2,,,,5/3-5[16:1],,,,,,,,8/3v6[16:1],
,,,,,,,7/3-1-7[8:1],,,,,,,,3,,,,,,,,4,,,,3/5,,,,7,
,,,8/5,,,,7,{8},,,4/6,{4}4/6-1[0.1829##0.0915],
{16},7/3,,7/3-8[0.1829##0.1829],,,,,,4,,5,,6,,{32}7,2,
3,4,{16}5/8,,5,,4,,3,,{32}2,7,6,5,{16}4/1b,,,,8-4-8b[4:1],
,2/6,,8,,,,1,,2,,3,,4,,5,
{32}1,2,{16}6/3,,4-8[16:1],,5,,4,,6,,6,,,,8/7<5[16:1],
,8,,7,,,,8/1,,8/1,,7/2,,7/2,,3/6,
,3/6,,2,,3/2,,2/4,,5/2,,2/6-8[16:1],,,,5-1[16:1],
,,,4-2[16:1],,,,4/7h,,,,{32}8/1b,2/7,3/6,4/5,{8},{32}1/8b,7/2,
6/3,5/4,{8},{16}4,5,4,5,4,,,,1b-4[0.503##0.0915]*-5[0.503##0.0915],{32},,,,,7b,,,,1,
,,,8,,7,,6,,,,5/1,,,,8,,5,,6,,4,,2,,4,,7,,3,
,5,,2,,4,,,,6/3,,,,6/3,,,,,,,,5/7h[4:1],,,,,,,,3,,,,3,
,,,4,,5,,4,,3,,4,,5,,4,,3,,7,,2,,8,,1,,7,,2,
,8,,1,,7,{16},,,,,,,{8}1/8-4[0.5945##0.0915],,7,
{32},8,,,,5,,2,,4,,3,,5,,2,,4,,3,,7,,3,,6,,2,,5,,1,
,4,,8,,3,,,,7,,,,3,{16},,,{8}1/8h[8:1],1,3/7h[8:1],
3,6/1h[8:1],6,5/3h[8:1],5,{16}6/2b,4,{8}5,6/2b,
4,{32}6/2b,3x,4x,5x,6x,7x,8x,1x,2x,3x,4x,5x,{8}6x,8-4[0.1829##0.0915],2-4[0.1829##0.0915],7-5[0.1829##0.0915],
1-5[0.1829##0.0915],8-5-7[0.2744##0.1829]*-5-7[0.2744##0.1829],{16},8,{8},2-4[0.1829##0.0915],6-8[0.1829##0.0915],1-4[0.1829##0.0915],5-8[0.1829##0.0915],
1>4-6b[0.4573##0.3659],4,{16},6,{8},7,8,8/3,5,
5/7,6/2>5[0.2744##0.1829],{16},{32}7,E3,E4,A4,{16}D5,{8}8-6[0.1829##0.0915],1-3[0.1829##0.0915],8-4[0.1829##0.0915],1-5[0.1829##0.0915],
8-6[0.1829##0.0915],1-3[0.1829##0.0915],,8/7,{16}6,5,{8}6,{16}3,4,{8}3,
6,7-3[0.2744##0.1829],{16},7/8,,8,,7/B8,,6/B6,,5/B3,,4/B8,
,{32}3,2,1,8,7,6,5,4,{16}8/3b,,1x-5[0.1829##0.0915],,8/1x-7[16:1]*-4[16:1],,,,1,,6x,
,3/6pp5[0.1829##0.2744],,2,2,{8},{16}3,,7/3,6,5,6,8/2b,,,,3,
4,3,4,7bx/1,,,,4/8h[2:1],,,,,,,,2h[2:1],
,,,,,,,8h[2:1],,,,,,,,5h[2:1],
,,,,,,,2h[2:1],,,,,,,,1h[2:1],
,,,,,,,6h[2:1],,,,,,,,2,
,,,,,,,2/7h[2:1],,4,,2,,,,2h[2:1],
,6,,7,,,,6h[2:1],,4,,2,,,,1h[2:1],
,5,,7,,,,3h[2:1],,7,,5,,,,6h[2:1],
,1,,3,,,,2h[2:1],,4,,8,,,,6h[2:1],
,1,,4,,,,8qq6qq4qq2qq8[2:7],{1},,,{4},,,{8},{2}2-4-6-8-4-2[4:19],
,,,,,,,,,,,{8}8h[4:1],
{16}5,4,3,{8},{16}2h[16:5],
{8},{16}6,7,8,{8},{16}1h[16:5],{8},{16}7,6,5,{8},{16}8h[16:5],
{8},{16}3,2,1,{8},{16}4h[16:5],{8},{16}7,8,1,{8},{16}8h[16:5],
{8},{16}1,2,3,{8},{16}4h[16:5],{8},{16}6,7,8,{8},{16}7h[16:5],
{8},{16}1,2,3,{8},{16}2h[16:5],{8},{16}6,5,4,{8},{16}8h[16:5],
{8},{16}5,6,7,{8},{16}1h[16:5],{8},{16}4,3,2,{8},{16}5h[16:5],
{8},{16}1,2,3,{8},{16}4h[16:5],{8},{16}5,6,7,{8},{16}8h[16:5],
{8},{16}1,2,3,{8},{16}2/7,,,,2/7,,,,7,
3,6,2,5,1,4,,1-7[0.1829##0.0915],,4-1[0.1829##0.0915],,6-1[0.1829##0.0915],,4-8b[0.4573##0.0915]*-2b[0.4573##0.0915],,7,
{8}7,4,6b,7/5b,3/2b,5/7b,4/3b,6/8b-4-7[8:1],
{16}2b,2,,1,{8}3,2,4b-8[0.1829##0.0915],6b-2[0.1829##0.0915],3b-8[0.1829##0.0915],7,
{16},4,{8}4,6/5,4,3,{32}8/2b,7,6,5,{8}4,{16}2b,{32}4x,5x,
6x,7x,{16}8x/2,{8}2,2/8-3[16:1],6,8/4-1[16:1],5,4,3/8h[16:3],
{16},4,{8}4,7-4[16:1],2-5[16:1],7,2,8qq6[8:1]/1pp3[8:1],7/4,
{4},{8}8/2,{16}2,3,{8}4,{16}7,6,{8}5>3[0.1829##0.0915],5,
{16}7,8/4,{8},2/7,2/8>4[8:1],,4<7[0.1829##0.1829],,{16}3,4,
3,4,{8}5/2,{16},6/1,,7,8,6,3,1,{8}2,8-5[0.2744##0.1829],
{16},5-2[0.1829##0.1829],{8},4,8/6b,4/6b,6/2b,7b/3h[16:5],8,
{16}4,5,{8},8/1pp5[8:1],7,6,7,8/3,5-2[0.1829##0.0915],
{16},7-5[0.1829##0.0915],{8},1,{16}3,6,{8}4,{16}5,7,{8}4,6/1b,
{16},8/5b,,7x,,6,4,5,3,4,2,5,3,4,{8}1h[16:3],
{16}5,5,,8-6[0.1829##0.0915],,3-8[0.1829##0.0915],,5-3[0.1829##0.0915],,2v5[0.1829##0.0915],,6x<1b[0.1829##0.3659],,6,,2,
2,{8},{16}7-5b[16:1],,8,,7/2-4b[16:1],,1,,2,,1<6b[0.2744##0.0915],{8},{16}1,
{8},{16}3/7,,3/7,,3/7,,3/7,,{32}3/7,6x/2x,5x/1x,4x/8x,{16}3x/7x,,3x,
,2/4bx,
E
