&title=ハナタバ
&artist=MIMI feat. 可不
&first=0
&des=Lazurite*27
&lv_5=13
&lv_6=13
&inote_5=(119)
{1},,,
{4}4,4/5,4,4/6,5,5/4,5,5/3,
{4}3,2/4,6,5/7,3,4/2,6,5/7,
{16}7/2-5[8:1],,1,8,,,,,2/7-4[8:1],,8,1,,,,,
{16}7-4[8:1]/2-5[12:1],,1,8,,,,,{24}3,,3,4,,4,5,,5,6,,,
{16}7<4[8:1],,1,2/8,,,,,2>5[8:1],,8,1/7,,,,,
{16}6,,4/5,3p8[16:5],,,5,,5h[8:2],,,,,,
{24}4,,4,3,,,3,,3,2,,,2,,2,1,,,1,,2,3/8,,,
{24}5,,5,6,,,6,,6,7,,,7,,7,8,,,8,,7,1/6,,,
{24}2,,2,3,,,3,,3,4,,,4,,4,5,,,5,,4,3/6,,,
{24}7,,7,6,,,6,,6,5,,,5,,5,4-1[12:1]*-7[12:1],,,3/5,,,4,,,
{24},,,2/6,,,8,,1,1,,,8,,2,2,,,8,,3,3,,,
{24}3,,8,8,,,3,,7,7,,,3,,6,6,,,3,,5,5,,,
{24}3,,3,2,,,2,,2,1,,,1,,1,8,,,8,,1,2/7,,,
{24}6,,6,7,,,7,,7,8,,,8,,8,1-4[12:1]*-6[12:1],,,2/8,,,1,,,,,,
{8}5h[8:1],,,3h[8:7],8,7,6,5,4,2-6[12:1],8-4[12:1],2,8,,
{24}3,,3,5,,5,
{24}4b,,4,5,,5,6,,6,7,,7,{8}2<7[12:1],7>2[12:1],6,6,
{24}3,,3,4,,4,5p4[6:1],,5,6,,6,5,,,,,,
{24}8,,8,2,,2,
{24}1,,1,8,,8,7,,7,6,,6,{8}5-2[12:1],5-8[12:1],5,5,
{24}3,,3,2,,2,1q8[6:1],,1,8,,8,1,,,,,,
{24}7,,7,1,,1,
{24}8,,8,1,,1,2,,2,3,,3,{8}4-7[12:1],4-1[12:1],4,4,
{24}6,,6,5,,5,4p5[6:1],,4,3,,3,4,,,,,,
{24}4,,4,6,,6,
{24}5,,5,4,,4,3,,3,2,,2,{8}1-5[12:1],6-1[12:1],1,6,
{24}2,,2,3,,3,4,,4,5,,5,{8}4qq3[6:1]*pp5[6:1],,,,
{16}4/6<1[8:1],,5,4,,,,,6/2>5[8:1],,1,8,,,,,
{16}5<8[8:1]/3>8[8:1],,4,4,,,,,{24}2,,2,3,,3,4,,4,5,,,
{16}4/6-1[8:1],,5,4,,,,,6/2-5[8:1],,1,8,,,,,
{16}6-1[8:1]/2-5[8:1],,3,7,,,,,{24}4,,4,5,,5,6,,6,7,,,
{4}8-4[12:1],8b,
{16}1/2,,2>5[12:1],1,,1,2,,7,,7<4[12:1],8,,8,7,,
{24}3,,3,2,,2,1,,1,8,,,
{16}7,,7-4[12:1],8,,8,7,,2,,2-5[12:1],1,,1,2,,
{24}6,,6,7,,7,8,,8>5[12:3],1,,,{4},,
{24}3,,3,4,,4,3,,,6,,6,5,,5,6,,6,5,,,
{24}3,,4,2/5,,,2,,4,1/5,,,8,,8,7,,7,6,,6,5,,,
{24}6,,5,7/4,,,7,,5,8/4,,,1,,1,2,,2,3,,3,4,,,
{24}3,,4,3,,,6,,5,6,,,4,,4,5,,5,4,,4,3/6,,,,,,
{24}8/3,,,1,,2,8/3,,,2,,2,1,,1,2,,2,1,,,
{24}2,,4,3/5,,,7,,5,4/6,,,3,,3,2,,2,1,,1,8,,,
{24}2,,5,6/4,,,7,,4,5/3,,,6,,6,7,,7,8,,8,1,,,
{24}6,,5,6,,,3,,4,3,,,5,,5,4>1[12:1],,4,6,,6,4,,,,,,
{8}7<4[8:2],7,4p7[8:2],4,3,2,1,,
{8}2>5[8:2],2,5q2[8:2],5,6,7,8,,
{8}7<3[8:2],7,3q8[8:2],3,2,1,1,,
{8}1h[8:1],7h[8:1],3h[8:1],8h[8:1],4h[8:2],,7b,,
{24}5b,,5,4,,4,3,,3,2,,2,{8}7>2[12:1],2<7[12:1],3,3,
{24}6,,6,5,,5,4q5[6:1],,4,3,,3,4,,,,,,
{24}1,,1,7,,7,
{24}8,,8,1,,1,2,,2,3,,3,{8}4-7[12:1],4-1[12:1],4,4,
{24}6,,6,7,,7,8p1[6:1],,8,1,,1,8,,,,,,
{24}2,,2,8,,8,
{24}1,,1,8,,8,7,,7,6,,6,{8}5-2[12:1],5-8[12:1],5,5,
{24}3,,3,4,,4,5q4[6:1],,5,6,,6,5,,,,,,
{24}5,,5,3,,3,
{24}4,,4,5,,5,6,,6,7,,7,{8}8-4[12:1],3-8[12:1],8,3,
{24}7,,7,6,,6,5,,5,4,,4,{8}5h[8:4],,1h[8:1],,
{24}2,,7,1,,8,2-4[12:1],,7,1-5[12:1],,8-6[12:1],,,,,,,,,,
{24}3/4,,3,4,,2,1,,5,6,,8,7,,1/2,{8}1-5[12:1]/2-6[12:1],5/6,1/2,,
{24}7,,2,8,,1,7-5[12:1],,2,8-4[12:1],,1-3[12:1],,,,,,,,,,
{24}6/5,,6,5,,7,8,,4,3,,1,2,,7,{8}8-3[12:1],7-4[12:1],8,7,
{24}1b>4[12:1],,,7,,2,{8}8<5[12:1],7,1>4[12:1]/8,2,1/8,7,
{24}1,,1,3,,3,5-2[12:1],,5,7,,7,5,,,,,,
{24}1,,8,3,,6,1,,8,3,,6,1,,7,3,,8,{8}4>1[12:1],8<5[12:1],4,8,
{24}3,,3,1,,1,8,,8,6,,6,{8}3h[8:2],,7h[8:2],,
{16}3,,3>8[12:1],4,,4,3,,6,,6<1[12:1],5,,5,6,,3,,3>8[12:1],4,,4,3,,
{24}6,,6,5,,5,4,,4,3,,,
{16}3,,3-8[12:1],4,,4,3,,6,,6-1[12:1],5,,5,6,,3,,3-8[12:1],4,,4,3,,
{24}5,,5,4,,4,3,,3,2,,,
{16}2-7[12:1],,4,5,,5,4,,8-3[12:1],,5,4,,4,5,,
{16}1-6[12:1],,4,5,,5,4,,{24}3,,3,2,,2,1,,1,8,,,
{16}7-4[12:1],,1,2,,2,1,,3-6[12:1],,2,1,,1,2,,
{16}7-4[12:1],,2,1,,1,2,,{24}3,,3,4,,4,5,,5,6h[8:1],,,
{32}8w4[8:12],1,2,3,{8},{4},,,
{1},,
E
&inote_6=(119)
{1},,,
{4}4,4/5,4,4/6,5,5/4,5,5/3,
{4}3,2/4,6,5/7,3,5/2,6,4/7,
{16}7/2-5[8:1],,1,8,,,,,2/7-4[8:1],,8,1,,,,,
{16}1v6[8:1]/6,,2,1,,,,,{24}3,,3,4,,4,5,,5,6,,,
{16}7<4[8:1],,1,2/8,,,,,2>5[8:1],,8,1/7,,,,,
{16}6,,4/5,3p8[16:5],,,5,,5h[8:2],,,,,,
{24}5,,5,4,,,4,,4,3,,,3,,3,2,,,1,,2,3/8,,,
{24}4,,4,5,,,5,,5,6,,,6,,6,7,,,8,,7,1/6,,,
{24}2,,2,3,,,3,,3,4,,,4,,4,5,,,5,,4,3/6,,,
{24}7,,7,6,,,6,,6,5,,,5,,5,4-1[12:1]*-7[12:1],,,3/5,,,4,,,
{24},,,2/6,,,8,,8,1,,,8,,8,2,,,8,,8,3,,,
{24}3,,3,8,,,3,,3,7,,,3,,3,6,,,3,,3,5,,,
{24}3,,3,2,,,2,,2,1,,,1,,1,8,,,8,,1,2/7,,,
{24}6,,6,7,,,7,,7,8,,,8,,8,1-4[12:1]*-6[12:1],,,2/8,,,1,,,,,,
{8}5h[8:1],,,3h[8:7],8,7,6,5,4,2-6[12:1],8-4[12:1],2,8,,
{24}3,,3,5,,5,
{24}4b,,4,5,,5,6,,6,7,,7,{8}2<7[12:1],7>2[12:1],6,6,
{24}3,,3,4,,4,5p4[6:1],,5,6,,6,5,,,,,,
{24}8,,8,2,,2,
{24}1,,1,8,,8,7,,7,6,,6,{8}5-2[12:1],5-8[12:1],5,5,
{24}3,,3,2,,2,1q8[6:1],,1,8,,8,1,,,,,,
{24}7,,7,1,,1,
{24}8,,8,1,,1,2,,2,3,,3,{8}4<7[12:1],4>1[12:1],4,4,
{24}6,,6,2,,2,5q7[6:1],,5,3,,3,5,,,,,,
{24}4,,4,6,,6,
{24}5,,5,4,,4,3,,3,2,,2,{8}1-5[12:1],6-1[12:1],1,6,
{24}2,,2,3,,3,4,,4,5,,4,{8}5pp6[6:1],,,,
{16}3>8[8:1],,,4,,,5,,6q2[8:1],,,5,,,4,,
{16}3p7[8:1],,,5,,,6,,{24}6,,6,5,,5,4,,4,3,,,
{16}1/2>5[8:1],,,8,,,7,,7/6>3[8:1],,,8,,,1,,
{16}3/2z6[8:1],,,4,,,5,,{24}5,,5,4,,4,3,,3,2,,,
{4}1-5[12:1],1b,
{16}8/7-4[8:1],,,5,,,3,,1/2-5[8:1],,,4,,,6,,
{24}7,,7,6,,6,5,,5,4,,,
{16}4/3v8[8:1],,,1,,,7,,5/6v3[8:1],,,4,,,2,,
{24}1,,1,8,,8,2,,2qq5[12:3],8,,,{4},,
{24}3,,3,4,,4,3,,,6,,6,5,,5,6,,6,5,,,
{24}3,,4,2/5,,,2,,4,1/5,,,8,,8,7,,7,6,,6,5,,,
{24}6,,5,7/4,,,7,,5,8/4,,,1,,1,2,,2,3,,3,4,,,
{24}3,,4,3,,,6,,5,6,,,4,,4,5,,5,4,,4,3/6,,,,,,
{24}8/3,,,1,,2,8/3,,,2,,2,1,,1,2,,2,1,,,
{24}2,,4,3/5,,,7,,5,4/6,,,3,,3,2,,2,1,,1,8,,,
{24}2,,5,6/4,,,7,,4,5/3,,,6,,6,7,,7,8,,8,1,,,
{24}6,,5,6,,,3,,4,3,,,5,,5,4>1[12:1],,4,6,,6,4,,,,,,
{8}7<4[8:2],7,4p7[8:2],4,3,2,1,,
{8}2>5[8:2],2,5q2[8:2],5,6,7,8,,
{8}7<3[8:2],7,3q8[8:2],3,2,1,1,,
{8}1-4[12:1],2,1-6[12:1],8,1,,1b,,
{24}6b,,6,1,,1,7,,7,4,,4,{8}6q3[12:1]/5,7>2[12:1]/6,,,
{24}3,,3,6,,6,7p2[12:1],,7,5,,5,7,,,,,,
{24}1,,1,6,,6,
{24}2,,2,7,,7,5,,5,4,,4,{8}3-7[12:1],5-8[12:1],3,5,
{24}1,,1,3,,3,2q3[6:1],,2,8,,8,2,,,,,,
{24}6,,6,4,,4,
{24}5,,5,1,,1,2,,2,4,,4,{8}5>2[12:1],6<1[12:1]/5,5,6,
{24}3,,3,5,,5,4qq3[6:1],,4,7,,7,4,,,,,,
{24}5,,5,3,,3,
{24}4,,4,8,,8,7,,7,5,,5,{8}4-6[12:1],3-7[12:1]/4,3,2,
{24}8,,8,3,,3,6,,6,2,,2,{8}5h[8:4],,1h[8:1],,
{24}2,,7,1,,8,2-4[12:1],,7,1-5[12:1],,8-6[12:1],,,,,,,,,,
{24}3/4,,3,4,,2,1,,5,6,,8,7,,1/2,{8}1-5[12:1]/2-6[12:1],5/6,1/2,,
{24}7,,2,8,,1,7-5[12:1],,2,8-4[12:1],,1-3[12:1],,,,,,,,,,
{24}6/5,,6,5,,7,8,,4,3,,1,2,,7,{8}8-3[12:1],7-4[12:1],8,7,
{24}1b>4[12:1],,,7,,2,{8}8<5[12:1],7,1>4[12:1]/8,2,1/8,7,
{24}1,,1,3,,3,5-2[12:1],,5,7,,7,5,,,,,,
{24}1,,8,3,,6,1,,8,3,,6,1,,7,3,,8,{8}4>1[12:1],8<5[12:1],4,8,
{24}3,,3,1,,1,8,,8,6,,6,{8}3h[8:2],,7h[8:2],,
{16}3,,3>8[12:1],4,,4,3,,6,,6<1[12:1],5,,5,6,,3,,3-8[12:1],4,,4,3,,
{24}6,,6,5,,5,4,,4,3,,,
{16}3,,3v8[12:1],4,,4,3,,6,,6v1[12:1],5,,5,6,,3,,3-8[12:1],4,,4,3,,
{24}5,,5,4,,4,3,,3,2,,,
{16}7-4[12:1],,1,2,,2,1,,5-8[12:1],,2,3,,3,2,,
{16}1-6[12:1],,3,4,,4,3,,{24}3,,3,4,,4,5,,5,6,,,
{16}8-3[12:1],,6,5,,5,6,,4-1[12:1],,6,7,,7,6,,
{16}2-5[12:1],,7,8,,8,7,,{24}6,,6,5,,5,4,,4,3h[8:1],,,
{32}1w5[8:12],8,7,6,{8},{4},,,
{1},,
E
