&title=心予報
&artist=Eve/MORE MORE JUMP! × 初音ミク
&first=1.61
&des=Kurage
&lv_5=13+
&inote_5=(143)
{4}3-1[8:1],5,{16}7h[16:3],,,8,,,{8}6-4[8:1],
{8},3,3,,1/2h[4:1],,5,,
{4}6-8[8:1],4,{16}2h[16:3],,,6,,,{8}4b/8b,
{8},3,5pp5[8:3]*qq5[8:3],,,,,,
{8}3/4-6[8:1],3,34,2,{16}7,8,,81,,,{8}2/7V51[8:2],
{8},1,3-6[8:1],,8-4[8:1],,2,,
{8}6/5-3[8:1],6,65,7,{16}2,1,,18,,,{8}2V41[8:2]/7V58[8:2],
{8},27,,,{16}7,8,7,,{4}6b/2b,
{8}3>5[8:4]/4h[8:6],,,,,,,3/4-1[8:1],,4/2h[8:5],,,,,8,,
{8}4>5[8:4]/8h[8:6],,,,,,,8-4[8:1]/4,,2h[8:5]/8,,,,,6,,
{8}6<4[8:4]/5h[8:6],,,,,,,6/5-8[8:1],,5/7h[8:5],,,,,1,,
{8}5<4[8:4]/1h[8:6],,,,,,,1w5[4:1]/5,,,,,,,3h/7h,,
{8}6h[4:1],8,5h[4:1],7,{16}6,5,,3,4,,2,2,
{16}5,3,5,3,6,4,6,4,7,5,6,,48,,,,
{8}3-5[8:1],5,37,7,{16}6,5,6,5,6,,47,,
{8}6-4[8:1],3,16,1,{16}2,,3,4,3,,6,5,
{16}7h[8:1],,5,6,3h[8:1],,5,4,7h[8:1],,5,,46,,3,4,
{16}2h[8:1],,5,4,6h[8:1],,3,4,2h[8:1],,5,,37,,6,,
{8}6-4[8:1],{16},2,{4}2-6[8:1],8-4[8:1],81,
{8}2h[16:3]/6,{16},5,4,,37,,2h[8:1]/4h[8:1],,,4h[8:1]/5h[8:1],,,57,,
{8}6pp3[4:3],,,4-1[8:3],4,,,,
{8},,,3,2pp4[8:3],,,6>3[8:3],6,,,2,1p5[8:3],,,7v2[8:2],7,,,3>6[4:2],{16}4,,,5h[16:3],,,,,
{4}4-1[8:1],{8}7-4[8:1],8,{4}2-7[8:1],{8}5-2[8:1],6,
{4}3pp4[16:5]*V14[16:5],,,2h/6h,
{4}7b-3[8:1]/4b-1[8:1],74,{16}2-5[8:1]/5,,,6-2[8:1],,,8-5[8:1]*-3[8:1],,
{8},8<2[32:11],,{16}4,,,,1pp1[16:5],,{8},8,
{8}8,7,7q4[16:3],6,{16}5h[8:1],,,5qq5[16:5],{8},2,
{8}2,1,1q6[16:3],8,{16}7h[8:1],,,7-3[8:1],{8},3,
{8}1w5[8:1],,1,,{16}8-4[8:1]/2,,,3<6[8:1],,,1-5[8:1],,
{8}2,7-3[8:1],6,1>4[8:1],2,5,5,63,
{16}8b/1b,,2,4,,7,5qq5[4:1]*pp5[4:1],,{8}6,5<3b[8:3],,,
{8},4,4b,,{16}6,5,6,,{8}81,34,
{4}2b-6[8:1]/5b-8[8:1],25,{16}7-4[8:1]/4,,,3-7[8:1],,,1-4[8:1]*-6[8:1],,
{8},1>7[32:11],,{16}5,,,,8qq8[16:5],,{8},1,
{8}1,2,2p5[16:3],3,{16}4h[8:1],,,4pp4[16:5],{8},7,
{8}7,8,8p3[16:3],1,{16}2h[8:1],,,2>6[16:3],,,{8}6<2[16:3],
{8}6pp5[8:3],,,3,4qq5[8:3],,6,,
{8}8-3[8:1],7-4[8:1],8,7,,52,3-7[8:1]/4-8[8:1],,
{8}3b/4b,,6-2[8:1]/5-1[8:1],,6b/5b,,8<5[8:1]/4>1[8:1],,
{8}8b/4b,,3<6[8:1],7qq5[8:1],5q1[8:1]*p1[8:1],,,,
{4}8bw4[8:1]/2,,8bw4[8:1]/6,,
{4}8bw4[8:1]/4,,8b<1[8:7]/1b,,
{4}8,8,8,8<1[8:7],
{4}2,4,6,8-4[8:1],
{4}8w4[8:1],8,{8}2h[8:1],4h[8:1],6h[8:1],8h[8:1],
{4}1w5[8:1],1b,{16}7-3[8:1]/3,,,4-8[8:1],,,2-5[8:1]*-7[8:1],,
{8},2<4[32:11],,6,,8,8,2-6[8:1],
6V48[4:1],2,8,7,{16}6>3[8:1],,,2,{8}6,1-5[8:1],
{8}5V74[4:1],1,7,8,{16}1-5[8:1],,,2,1,,{8}3,
{8}8-4[8:1]/2-5[8:1],,82,,{16}1-5[8:1]/7,,,6>3[8:1],,,8-4[8:1],,
{8}7,2-6[8:1],3,8<5[8:1],7,4,4,36,
{16}1b/8b,,7,5,,2,4pp4[4:1]*qq4[4:1],,{8}3,4>6b[8:3],,,
{8},5,5b,,{16}2,4,2,,{8}18,57,
{8}4b>1[8:1]/8b<5[8:1],,4/8w4[8:1],,8,,2b/6b,1b>4[8:1]/5b<8[8:1],
{8},1-5[8:1]/5-2[8:1],,1w5[8:1],,1,,7-3[8:1],
3V51[4:1],7,1,2,{16}3<6[8:1],,,7,{8}3,8-4[8:1],
{8}4V25[4:1],8,2,1,{16}8-4[8:1],,,7,8,,{8}6,
{4}7bqq4[4:2]/3bqq8[4:2],,,{8},15,
{16}2,4,3,,6,5,7,,8,,57,,5-1[8:1]/7-4[8:1],,,,
{4}5b/7b,2-5[8:1]/4-8[8:1],2b/4b,8w4[8:1]*-4b[8:1]/4,
{4}8b,{8}6>3[8:1],2pp4[8:1],4p8[8:1]*q8[8:1],,,,
{4}1bw5[8:1]/7b,,1bw5[8:1]/3b,,
{4}1bw5[8:1]/5b,,1-5[8:1],,
{8}6-4[8:1]/4,,64,,{16}3,4,,2h[16:3],,,6-4[8:1],,
{8},3,3-1[8:1],,8-4[8:1]*-6[8:1],,,,
{8}7-5[8:1]/5,,75,,{16}2,4,,3h[16:3],,,7-5[8:1],,
{8},4,4-2[8:1],,8-5[8:1]*-3[8:1],,,,
{8}3-5[8:1]/5,,35,,{16}6,5,,7h[16:3],,,3-5[8:1],,
{8},6,6-8[8:1],,1-5[8:1]*-3[8:1],,,,
{8}2-4[8:1]/4,,24,,{16}7,5,,6h[16:3],,,8bp3[4:1],,
{8},1,2,,{4}4h[16:1],2h[16:1],
