&title=トリアージ
&artist=niki
&first=0.7599999
&lv_5=13+
&des=久才的鹤梓123
&des_5=久才的鹤梓123
&inote_5=
(180){4}6,5/7,{8}4,5,3,4/2h[4:1],
,B4,B2,B5,B3,B6,B4,C,
2h[8:1],1h[8:1],3h[8:1],8h[8:3],E3,E4,E5,7<4[8:1],
,1h[4:1],,,,3,3,4,
{4}2/5,7/1h[2:1],6,{8}5,2,
,4,{4}3,3,3,
{1}5h[4:5]/C,
{4}6,6,7<4[8:1],7/8,
{8}1-5[8:1],1,5,6-8[8:1],4,6,,2-5[8:1],
,2-8[8:1],8,2-6[8:1],5,2,,8-4[8:1],
,8-6[8:1],5,8,3,2,1,8/4-8[8:1],
,3/4,,1<6[8:1]/2>5[8:1],,E2f/E1/E3/A2/A1,,,8-4[8:1],
8,3,3-1[8:1],5,3,8,7-3[8:1],
,7-5[8:1],4,7-1[8:1],1,7,3,4,
2/5,5/2h[4:1],,6,{4}4/7h[4:1],{8}2,8/3,
,1/7,{4}6-1[8:1]/2-5[8:1],2/6,7/3-8[8:1],
E3f,6h[4:1],{8}5,6,4,5/3h[4:1],
,5,{4}4/2,{8}5,4,{4}4/6,
3-8[8:1],7-4[8:1],2-5[8:1],6-1[8:1],
{8}3-5[8:1],3,8<5[8:1],8,4,4w8[8:1],,4b,
,2/6,{4}2/6,{8}5,3-5[8:1],4,E4f,
,6,{4}7/5,{8}6,6<1[8:1],5,6,
,3,{4}2h[8:1]/4h[8:1],3h[8:1]/5h[8:1],4h[8:1]/6h[8:1],
{8}7-4[8:1],7,8,8-3[8:1]*-3[8:1],,,,,{1}6b/3bV15[2:1],
7V51[2:1],
{8}3h[4:3],,,2z6[8:5],{2}2,
{4}4,4,4/5,3,
{2}3qq4[4:3],{4}6,7qq8[4:3],
{2}7,{4}2,1pp5[4:3],
{8}1,,,8,{2}8h[4:1],
{4}6,5/3,4/2-6[8:1],2,
4/7,{8}8/5>1[4:1],8,8,8,8,8,
{4}7/1,{8}5/3,3,4/3,3,{4}3/1w5[8:1],
1,{16}7,8,{8}6-1[8:1]/1-5[8:1],,6/1,,4,
{2}8b/4bw8[8:1],{4}2h[4:1],4h[4:1],
1b-5[8:1],1/6-1[8:1],6/2-5[8:1],2/8-4[8:1],
8/3-8[8:1],3/7-3[8:1],7/1-5[8:1],1/4<8[4:1],
8>4[4:1],4<1[4:1],1>5[4:1],5w1[8:1],
Cf/B1/B5,7/3-8[8:1],3/7-4[8:1],7/1,
{6}6/2h[6:1],{12}4,3,{24},{8}2/5,{4}1-5[8:1]/6-8[8:1],1/6,
3-8[8:1]/7-5[8:1],3/7-3[8:1],7/1-4[8:1],1/5-8[8:1]*-2[8:1],
5,3/7<4[8:1],7/1w5[8:1],1,
{2}3b-8[8:1]/7b-4[8:1],{4}2/6h[4:1],5h[4:1],
8b-4[8:1],8/3-8[8:1],3/7-4[8:1],7/1-5[8:1],
1/6-1[8:1],6/2-6[8:1],2/8-4[8:1],8/5>1b[4:1],
1<5[4:1],5>8b[4:1],8<4[4:1],4w8[8:1],
Cf/B8/B4,2/6-1[8:1],6/2-5[8:1],{8}2,8,
2-4[8:1],6-1[8:1],2,6,5,6V47[4:1],3-8b[8:1],6,
{4}3b,2h[4:1]/Cfh[4:3],,1V74<6V83[2:3],
,,,,,5h[2:1],
,4V61V35<8[4:7],
{1}3h[4:5],
,B8/B7/Ch[4:5],
{4},8,,,5/1h[4:3],
{16},,,,,,,,7,8,{8}7,
{4}1/6p4[8:3],6,3,2-4[8:1]*-6[8:1],
2,7-5[8:1],4,3,
2-5[8:1]*-6[8:1],2,8,7,
5/6h[4:1],4,5/3,{12}6,5,6,
{6}1h[6:1],{12}7,8,6,1,{2}5-7[8:1]*-3[8:1],
{4}4/8,2-4[8:1],5,6,
7-4[8:1]*-3[8:1],7,1,2,
4/3h[4:1],5,4/6,7/5,
{12}2,5,3,7,4,6,2,5,1,7,4,8,
{1}3/6V85[2:5],
{2},4-1b[0.6667##1],
{4},,,,3/4,
2/5,7<4[8:1]/8>3[8:1],7/8,
{8}1-5[8:1],1,5,6-1[8:1],4,6/5,,2-5[8:1],
,2-8[8:1],8,2-6[8:1],5,2,7,8-4[8:1],
,8-6[8:1],5,8,3,2,1,7-3[8:1]/8-4[8:1],
,E8f/B8/B7/A7/A8,,1<6[8:1]/2>5[8:1],,E2f/E1/E3/A2/A1,,,8-4[8:1],
8,3,3-1[8:1],5,3,8,7-3[8:1],
,7<4[8:1],4,7>2[8:1],1,7,3,4,
2/5,6/3h[4:1],,8,{4}4/7h[4:1],{8}5,2/1,
,3/7,{4}2>5[8:1]/6<1[8:1],,,8b/3bh[1:1],
B7,B6,E6,
6h[1:1],B2,B1,E1,
1h[4:3],B6,B7,E8,
{2}8-5b[8:1],{16}4,5,4,5,{4}6-1[8:1]/3-8[8:1],
6/3,Cf/E1/B8/E7/E5/B4/B2/B6/E3/B7/B1/B3/B5,{8}6/1,8,7<4[8:1],6,
7,8-4[8:1],6-1[8:1],8,{4}6,5/2pp8b[8:3],
{2}2x-6b[8:1],{4}5-1[8:1]/7-4[8:1],5/7,
2b/8bw4b[8:1],8,{16}7,5,{8}6,{16}3,4,{8}2,
{4}5b/1b-5[8:1],1/6-1[8:1],6/2-5[8:1],2/8-4[8:1],
8/3-8[8:1],3/7-3[8:1],7/1-5[8:1],1/4<5<5[2:1],
Cf,5<5b[2:1],Cf,5w1[8:1],
Cf/B1/B5,7/3-8[8:1],3/7-4[8:1],{8}7,1,
8-4[8:1],3-8[8:1],8,3,5,3V52b[4:1],6-1[8:1],3,
{4}6b/Cf/B7/B4/B3/B8/E5/B1/B2/B6/B5/E7/E3,3h[4:1],6h[4:1],1-5b[8:1],
1/Cf/B5/B1/7-4[8:1],{8}7,3>8b[8:1],,3,6qq7>1[2:1],6,
{4}Cf,{8}1,2,3,4,5/8-4b[8:1],7,
{4}8/Cf/B4/B8/2-5[8:1],{8}2,6<1[8:1]*<1[8:1],,6,3V14-8b[8:3],3,
{4}Cf,{8}6,6,5/7,6/4,{16}5-1b[8:1],4,{8}6,
{4}5/Cf/B1/B5/2-5[8:1],{8}2,7<4[8:1],,7,8-3V52b[8:3],8,
{4}Cf,{8}6,6,1-3[8:1]/7-5[8:1],5/3-7b[8:1],{4}1/7w3[8:1],
B7f/B8/B6/E8/E7,{8}1/5,2-5[8:1],6-1[8:1],2,6,3-8[8:1],
4-7[8:1],3,4,2,{4}1-4[8:1],B2f/E2/B1/1q3b[1:5]/5-8[8:1],
{1}B6/B5/E6f/5q7[4:19],
E
