&title=Re;build
&artist=細江慎治
&first=-0.07
&des=Re:X
&lv_6=13+
&inote_6=(160)
{4},,6<3[16:8],,6<3[16:8]*<3[16:8],,6<3[16:8],,6>3[16:8],{8},,{16}3>7[16:8],,,,,,,,7<2[16:8],,,,,,,,2<4[16:8],,,,,,,,4>5[16:8],,,,,,,,5>5>5[16:14],,,5h[16:3],,,,,6h[16:3],,,,,,5>5[16:8],,6h[16:3],,,,,,5>5[16:10],,6h[16:3],,,,,,5,,5>4>3>2<1<8<7<6>5[16:12],,,7h[16:3],,,,,6h[16:3],,,,,,8h[8:1],,,,,7h[16:3]/4h[16:3],,,,,5b/6b,,,3b/4b,,,C/8b,
,1-5[16:1],,8,2,1,,3-7[16:1],,45,,73,,8-6-4-2[2:1]*-4[16:1],,,,8,,,2,,,1h[4:1],,,,,,8/1-5[16:1],,,,1,,6,6,4v7[16:1]/3,,2-5[16:1],,41,,2,,1-3-5-7[2:1]*-5[16:1],,,,1,,,7,,,8,,,8bv3[16:1],,,1h[4:1],,,,4-8[16:1],,2,5,4,,7v4-6[8:1],,6-1[8:1],,3/7,,2-6[16:1]*<4[2:1],,,,2,,,4,,,3h[16:6],,,,1,,8-4[16:1],,,,8,,3,3,5/6-1-7[8:1],,7-3[8:1],,4h[8:1],,,,4-8[16:1]*<2[2:1],,,,4,,,2,,,3h[16:6],,,,4,,4-8[16:1],,,,46,,7h[16:1],,1h[16:1]/7h[16:1],,2h[16:1]/6h[16:1],,3h[16:1]/5h[16:1],,4h[8:1],,8-4[16:1],,,,7pp4[3:1]/8,,6,5,7,,4<1[4:1],,,,2,,2-6[16:1],,,,21,,1,8,7-3[16:1],6,5,4,7-5-1[8:1]/3,,2-4[16:1],,7,,2,,8<3[4:1],,1,1,8,,2-6[16:1],,,,2b,,1h[2:1],,,,3>6[4:1],,,,3,,,,4-2-8-6[4:1],,,,4,,,,5w1[6:1],,,,,,,,,,5h[8:1],,4h[4:1],,5,,6<3[4:1],,,,6,,,,5-7-1-3[4:1],,,,5,,,,4-8[6:1],,,8,,,7,,7,,6,5,6,1,6,5,6bh[16:3],,,2,,,2-5-3[8:1],,3>2-7<6[4:1],,,,6-8>2-4[16:6],,,,5,,,5,,,5<3[16:6],,1,,5,,,,,,4-2-8[4:1],,,1,,,7-4-6[8:1],,6<7-2>3[4:1],,,,3-1<7-5[3:1],,,,4,,,4,,,4,,,4-2-5-1-6-8[16:23]/Ch[16:31],,,,,,,,,,,,,,,,,,,,,,,,,,,,,,,
(80){32}1s5<5[16:10],,,,,,,,1b,,,E8/B7,,,B6/E6,,C,,8-4[2:1],,,,,,,,,,,,,{32}E2,B2,E3,E4,E6,B6,E7,E8,,8b<7-3<4[32:9],,,2,,,2,,,2z6[4:1],,,,,,,,,,,{128}A4,B4,C,B8,A8,,,,{32},,,,8h[16:1],,6h[16:1],,4h[16:1],,1b-4<6[32:10],,,7/8,,,7/8,,1,,,,7h[32:10],,,,,,,,,,,{96}8,,1,,2,,3h[16:1],,{32},{96},{96}7,,8,,1,,2h[32:3],,{32},{96},{32},6bp4[32:11],,,3>7[4:1],,,6,,,4,,,,,,,{128},,,,,,,,{32},,{128}A7,B7,C,B3,A3,{32},,,E1,E6/B5,E3,E8/B7,E5,B1/E2,E7,B3/E4,C/1bx-3-8-6-1[32:10],,,E1,,,5h[16:1],,1,,,,5h[16:1],,,,5<4[32:12],,,5h[32:3],,,,,5/E1,E8,E7,E6,E5,E4,E3,,8bx-6-2-4[32:10],,,1h[32:3],,,,,,5h[32:3],,,,,5p3[32:12],,5h[16:1],,,,{128}A5,B5,C,B1,{32}A1,,,1,,,1h[32:3],,,,,(160){16}1bh[16:3],,,,,,1,,3qq5[2:1],,,,3,,4,,5<4[16:20],,,,,,,,5,,,,,,,,6,,,,,,,,7,,,,,,,,8h[2:1]/2h[16:7],,,,,,,,3,4,5,6,7,86,15,24,
3b-5-2[8:1],,,5,3,,1-5[16:1],,7-5-3[8:1]/8,,1,,7,,2-7-1[8:1],,1-5[16:1],,2,,,,6<2[4:1],,{32}3-5[16:1],,,,,,,,{16}3,,,,1b-5-3[8:1],,,5,1,,6-8[16:1],,7,,6,,2v3-5[4:1],,7-5-1[4:1],,2,,7,,,,3-7[16:1],,,,,,4>3>2<1<8<7<6>5[16:8]*z8[16:5],,,,4b,,,,,,,,1<4[4:1],,,,,,,,1s5[4:1],,,7-5-3[4:1],,,7,,,,2-6[16:1],,1>8[16:10],,2,,1b,,,,,,8>8>4[16:14]*z4[16:6],,,,,,,,,,,,,,,,,,,,Ch[16:6],,,,,,3b-1-5[8:1],,,5,3,,8-4[16:1],,1,,78,6,5v8-6[8:1],,6-4[16:1],,25,,3-7[16:1],,,,3,,6-1[16:1]*-3[16:1],,45,,6b,,,,8b-6-4[16:2],,,4,8,,3,,2-6[16:1],,1,3,2<7[16:1],,1,,25,,6>7[4:1],,,,65,,,,5,,5<4[3:1],,,,45,,,5,5,,6h[8:1],,8-6-1[8:1],,,1,8,,3,,4-2-5[8:1]/6,,,5,4,,1qq6[16:6],,,,1/3h[8:1],,,,3,,4b>5[2:1],,,5,4,,5,,5>4>3>2<1<8<7<6>5[16:6],,,1h[16:1],,,6>5>4>3>2<1<8[16:5],,6,,,2h[16:1],,,6v1-7-4[16:3],,5,,6,,2b-5[16:1],,,,2b,,,8,8,{64}7x,6x,5x,4x,{16}3x,,1-5[16:1],,2,8,{64}1,C,,,,,,,{16}7v4-6[8:1],,6-1[16:1],,71,2,3,,2,,3-5[16:1]/1,,{64}1x,8x,7x,6x,{16},6xv1-7[8:1]/3,{64},,,7x-5[16:1],,,,,,,,,{16}6b/3h[16:3],,,,3,,12,,3/4v7[16:1],,5,3,4,,{64}8x,1x,2x,3x,{16},3x-8-2[8:1],,2x-5[16:1],,,,7-3[16:1],,8w4[16:1],8,7,,8b,,,,1b/8hb[8:1],,2,5,3,6,8h[8:1],,7b,,6,3,5,2,8h[8:1],,1b,,2,5,3,6,8h[8:1],,7,5,6,4,5,3,4,2,{16}1b,8,7,6,5,4,{32}3/1b,2,3,4,5,6,7,8,17,6,5,4,{48}8x/3b,1x,2x,3x,4x,5x,6x,7x,8x,1x,2x,3x,4bw8[4:1],
,,,,,{16},,,,,,,,(80){32}4b<5<6<7>8>1>2>3<4[32:22]*<5<6<7>8>1>2>3<4[32:22],,,,,,Ch[4:1],,,,,,,,,,,,,,,,4b<4[32:12],,,,,,,,,,,,,,,,8b>1>2>3<4<5<6<7>8[32:16],,,,,,,,,,,,,,,,8b>8>1>2>3<4<5<6<7>8>8>8>1>2>3<4<5<6<7>8>8>8>1>2>3<4<5<6<7>8>8>8>1>2>3<4<5<6<7>8[32:73],,,,,,,,,,,,,,,,{1},,C,
E
