&title=砂寸奏
&artist=MyGO!!!!!
&first=0
&des=はくこう
&lv_5=13+
&inote_5=(182)
{1},
{16}3,6,4,5,,,,,,,,,,,,,
{16}63,,,,4,,4/6h[4:1],,,,5,,47,,,,
{16}56,,,,5,,5/7h[4:1],,,,4,,4,,,,
{16}56,,,,4,,4/6h[4:1],,,,5,,47,,,,
{16}56,,,,5,,5/7h[4:1],,,,4,,4,,,,
{16}36,,,,5,,5/3h[4:1],,,,4,,52,,,,
{16}43,,,,4,,4/2h[4:1],,,,5,,5,,,,
{16}43,,,,5,,5/3h[4:1],,,,4,,52,,1p4[48:5]/8q5[48:5],,
{16},,,,,,3,6,2,7,1,8,27,,,,
{16}26,,1,,7,,4-1[8:1],,,,7,,6,,5-7[12:1],,
{16},,3-5[12:1],,,,6-1[8:1],,,,2,,2,,,,
{16}28,,3,,7,,1-4[8:1],,,,5,,6,,7-3[8:1],,
{16},,4-6[32:3]*-1[8:1],,,,4,,,,26,,26,,,,
{16}17,,2,,8,,5-2[8:1],,,,6,,7,,8-6[12:1],,
{16},,2-4[12:1],,,,7-4[8:1],,,,3,,3,,2,,
{16}1-5[8:1]/7,,,,6^1[8:1],,6,,4-8[8:1],,4,,8,,,,
{16}2,6,5h[8:1],,7,,7,3,4h[8:1],,2,,2,6,5,7,
{16}4b,,8,,2,,5-8[8:1],,,,2,,3,,4-2[12:1],,
{16},,6-4[12:1],,,,3-8[8:1],,,,7,,7,,,,
{16}71,,6,,2,,8-5[8:1],,,,4,,3,,2-6[8:1],,
{16},,5-2[8:1]*-8[8:1],,,,5,,,,73,,73,,,,
{16}5,,2,,34,,7,,4,,56,,3,5,3,5,
{16}1,,27,,27,,1,8,27,,3,5,4,6,4,6,
{16}1h[8:3],,5,,5,,7h[8:3],,5,,5,,3h[4:1],,5,,
{16}6,4,7,5,8,,1,,28,,37,,64,,53,,
{16}2>1[8:7],,,,,,,,,,,,,,1>1[16:17],,
{16},,,,,,,,,,,,,,,,
{16}2>1[8:7],,,,,,,,,,,,,,1s5[16:9],,
{16},,,,,,,,,,,,,,,,
{16}5bqq5[16:5]/3b,,,,,,,,,,,,,,4b^6[32:3]/5b^3[32:3],,
{16},,,,,,,,,,,,,,,,
{16}4bpp4[16:5]/6b,,,,,,,,1,,8,,7,,6b^4[32:3]/3b^5[32:3],,
{16},,,,,,,,,,,,,,,,
{16}5bqq4[32:7]/3b,,,,,,,,1,,1,,6,,3b^5[12:1],,
{16},,6b^4[12:1],,,,3b,,,,,,,,,,
{16}4bpp5[32:7]/6b,,,,,,,,8,7,6,5,4,,3b^5[12:1]/4b^6[12:1],,
{16},,,,,,,,7,7,5h[8:1],,6h[8:1],,4,4,
{16}8-6[12:1],,,1,8,,4-2[12:1],,4,,6,,5,,,,
{16}5h[4:1]/2,,,,4,,3/6h[4:1],,,,5,,4/7h[4:1],,,,
{16}6-4[12:1],,,4,6,,3-7[8:1],,2,,2,,1,,1^4[4:1],,
{16},,4^7[4:1],,,,7^2[4:1],,,,2,,,,5,,
{16}6/4h[4:1],,,,5,,3h[4:1]/6,,,,4,,5/2h[4:1],,,,
{16}3-5[12:1],,,5,3,,6-2[8:1],,,,8,,8,,1,,
{16}25,,3,,4h[4:1]/6,,,,6,5,7,4,8,3,8-4[8:1],,
{16},,8v5[8:1]/4v1[8:1],,,,8,,,,37,,37,,,,
{16}3b>6[2:1],,,,,,4,,4,,,,5,,5,,
{16}6<3[2:1],,,,,,4,,4,,,,5pp4[2:1],,,,
{16}4,,,,,,,,1q5[32:7],,,,6,,6,,
{16},,74,,74,,,,{12}7,5,6,2-6[16:25],4,3,
{16},,,,,,,,,,,,,,,,
{16},,,,,,,,,,,,,,6,5,
{16}47,,8-4[8:1],,,,28,,1,,1w5[8:1],,5,,1b,,
{16},,37,,3q7[8:1]/7,,,,,,,,,,2b/8b^3[8:1],,
{16},,8,,4-1[8:1],,,,4-7[8:1],,,,42,,1-6[8:1],,
{16},,15,,4^7[8:1]*^1[8:1],,,,4,,,,8-5[64:9],,,,
{16}4-8[64:9]/8,,,,2-5[64:9],,,,6-2[64:9]/2,,,,7h[8:3],,,,
{16},,1,,26,,3,4,2,,7,5,6,4,5,3,
{16}4-7[8:1],,1,,,,2,2,8-5[8:1],,4,,,,3,3,
{16}4-7[8:1],,1,,,,2,2,8,,3,4,2,4,3,4,
{16}1^4[8:1],,,,14,,5^8[8:1],,,,58,,1,,,,
{16}3,4,2,5,4,7,5,,48,,62,,,,7b/1b^6[8:1],,
{16},,1,,5-8[8:1]*-2[8:1],,,,5,,,,37,,8b-3[8:1],,
{16},,84,,5^8[8:1],,,,5^2[8:1],,,,1-5[64:9],,,,
{16}6-1[64:9]/1,,,,7-3[64:9],,,,4-7[64:9]/7,,,,2h[8:3],,,,
{16},,8,,37,,,,{12}3,4,5,4,5,6,
{16}5-2[8:1],,,,8,,7,,1-4[8:1]/6,,,,5,,6,,
{16}5-2[8:1]/7,,,,8,,7,,6/1,2,3,4,5b,,,,
{16}3^6[8:1]/8,,,,3/7^2[8:1],,,,47,,,,3^6[8:1]/8,,1/6^3[8:1],,
{16},,,,,,,,4,5,4,5,36,,1b/8b,,
{16},,2,,3,,4-1[8:1],,,,1,,8,,7-5[12:1],,
{16},,2-8[12:1]/7,,,,4-8[8:1]/2,,,,1,,1,,,,
{16}28,,3,,7,,1-4[8:1],,,,4,,5,,6-2[8:1],,
{16},,4-7[8:1]*^1[8:1]/6,,,,4,,,,26,,26,,,,
{16}83,,2,,5,,61,,7,,4,,83,,2,,
{16}4,,61,,7,,5,,82,,7,,36,,5/2,,
{16}1h[4:1]/4,,6,,8,,8h[4:1]/5,,3,,1,,1h[4:1]/4,,6,,
{16}8,,1,,26,,7,,48,5,6,7,8,1,2,3,
{16}5b/4b,,,,5,,5/3h[4:1],,,,4,,2,,4,4,
{16}2h[4:1],,,,4,,4/3h[4:1],,,,5,,5,,3,3,
{16}4h[4:1],,,,3,,5/3h[4:1],,,,4,,2,,4,4,
{16}2h[4:1],,,,4,,4/3h[4:1],,,,5,,5,,4,4,
{16}6,,7-4[8:1],,8,,17,,,,2-5[8:1],,4,,2b/5b,,
{16},,8-4[8:1],,5,,4b/8b,,,,2,,4,,1,1,
{16}2/8b,,6,,4,,5/3b,,2,,5,,6b/4,,
{16}7,,4,,5/3b,,1,,5,4,73,,73,,6/2-6[16:25],,62,,
{16},,,,,,,,,,,,,,,,
{16},,,,,,,,,,,,6,5,4,3,
{16}26,,26,,,,43,,43,,2-6[8:1],,71,,6/2b,,
{16},,45,,26,,1-5[8:1]/8-4[8:1],,,,,,,,,,
{16},,73,,73,,,,56,,7-3[8:1],,28,,3/7b,,
{16},,18,,3v8[8:1]/6v1[8:1],,,,,,,,,,2bs6[8:43]/7bz3[8:43],,
{16},,,,,,,,,,,,,,,,
{16},,,,,,,,,,,,,,,,
{16},,,,,,,,,,,,,,,,
{16},,,,,,,,,,,,,,,,
{16},,,,,,,,,,,,,,,,
{16},,,,,,,,,,,,,,5,5,
{16}1q5[8:1],,,,16,,8p4[8:1],,,,38,,1,,,,
{16}3,6,5,7,4,5,2,,51,,37,,,,2b/8b^3[8:1],,
{16},,8,,4w8[8:1],,,,4,,,,62,,1b-5[8:1],,
{16},,15,,4-1[8:1]*-7[8:1],,,,4,,,,8-5[8:1],,,,
{16}4b^7[64:9]/8b,,,,2b-5[8:1],,,,6b^3[64:9]/2b,,,,7h[8:3]/6b,,,,
{16},,1,,62,,,,{12}6,5,4,5,4,3,
{16}4-7[8:1],,,,41,,2,,8^5[8:1]/3,,,,84,,3,,
{16}4-7[8:1]/2,,,,41,,2,,3/8-4[8:1],7,6,5,4b,,,,
{16}6^3[8:1]/1,,,,6/2^7[8:1],,,,52,,,,6^3[8:1]/8,,1/3^6[8:1],,
{16},,,,,,,,8,1,8,1,72,,4b/5b,,
{16},,2^7[8:1],,4,,2b/5,,,,6q2[8:1],,5,,4/6b,,
{16},,3^6[8:1],,1,,8/3b,,,,7p3[8:1],,8,,1/7b,,
{16},,1^4[8:1],,2,,1b/5,,6,,5-8[32:3]/7-5[32:3],,,,5b/7b,,
{16},,1-3[32:3]/4-1[32:3],,,,1b/4b,,,,4,8,26,,,,
{16}2-4[32:3]/5,,,,25,,,,1-5[8:1]/5,,2,,15,,6,,
{16}7-5[32:3]/4,,,,7/4,,,,8-4[8:1]/4,,7,,84,,3,,
{16}2-5[48:5]/5,,,,25,,,,1-6[48:5]/6,,2,,16,,7,,
{16}8-4[48:5]/4,,,,8/4,,3,3,5,,37,,18,,37,,
{16}6>8[8:7],,,,,,,,,,,,,,4s8[16:9],,
{16},,,,,,,,,,,,,,8,1,
{16}27,,3<2[64:19],,6V82[64:11],,3,,,,,,5,,37,,
{32},,,,6b-2[16:1],,,,,,,4b-7[16:1],,,,,,8b,,,,,,,,,,,,,,,
E
