&title=PINK
&artist=キタニタツヤ
&first=0.4
&des=E-KETTLE
&lv_5=13+
&des_5=E-KETTLE
&inote_5=
(104){4},,,1h[16:1]`5h[16:1],
{16}1b,6,{8}5,{16}7,2,,4,{8}3,{16}7,8,,4,3,5,
{8}4,5,{16}5,6,,6,{8}7,{16}7,8,,4h[16:1],2h[16:1],8h[16:1],
{8}6h[8:1],8,{16}4h[16:1],6,,2h[16:1],{8}4,{16}8h[16:1],2,,4,5,6,
{8}3,3,{16}7,5,,8,3h[16:1],7,2h[16:1],6,1h[4:1],5,,,7b,
3,{8}4,{16}2,7,,5,{8}6,{16}2,1,,5,6,4,
{8}5,4,{16}4,3,,3,{8}2,{16}2,1,,5h[16:1],7h[16:1],1h[16:1],
{8}3h[8:1],1,{16}5h[16:1],3,,7h[16:1],{8}5,{16}1h[16:1],7,,5,4,3,
{8}6,1,{16}1,6,,2,7h[16:1],3,8h[16:1],4,{4}5xh[4:1]/1V75[8:1],
1-4[16:1],{8}7/1-6[16:1],8,3/1>1[16:3],2,{4}1/7h[4:1],
{8},3,2/8-4[16:1],1,8/7-3[16:1],6,{4}7/5,
6/2-4-7[8:1],2/6-8-3[8:1],6/2,6/2-6-8[4:1],
2/8-4-6[4:1],6-2-4[4:1],{8}7,8,1,2xh[8:1],
{4}3h[4:1],1h[4:1],7h[4:1],5h[4:1],
3h[4:1],1h,{32},,,,1x/8x,7,6,5,4x/3x,2,1,8,{8}6x/7x,
8x-2[8:1],7,6-8[8:1],5,4-6[8:1],3,2-4[8:1],1,
8-3[8:1],7,6-1[8:1],5,4-7[8:1],3,{4}2h[8:1],
1-4[8:1],B7/E7/B6,2-7[8:1],B5/B4/E5,
3-6[8:1],E1/B8/B1,4-1[8:1],B7/E7/B6,
5-8[8:1],B2/B3/E3,6-3[8:1],E1/B8/B1,
7-2[8:1],B5/B4/E5,8-5[8:1],B2/B3/E3,
{24}1/8,,,,,8,{12}1,{24}1,2,,2,{12}3,{24}3,4,,5,,,5,6,,6h[6:1],
,,,,,6,{12}2,{24}2,7,,7,{12}4,{24}4,6,,6,{12}3,{24}3,5,,5,
{8}2h[4:1],6,6h[4:1],2,1h[4:1],6,5h[4:1],1,
8h[4:1],5,4h[4:1],8,7h[4:1],3h[8:1],{48},8/4,1/5,2/6,3/7,4/8,5,6,7,8,1,2,
{4}7b/3bV17[8:1],3/5<7[16:1],{8}1/5>3[16:1],2,1/5-7[16:1],8,
1/5-3[16:1],2,1/5-8[8:1],8,{16}5/1,2,3,4-8[16:1],,,7-3[16:1],4,
{8}6,7/1,1/5,6/2,{16}3,7,{8}4,8-6[8:1],6-4[8:1],
4-2[8:1],2-8[8:1],8-6[8:1],6,4,2,6>3[16:1],7/3,
{48}2b,1,8,7,,,,,,,,,{8}3v8[16:1],4,6-1[16:1],5,3-8[16:1],4,
6v1[16:1],5,3v8[16:1],4,6,{24}5,,2,{12}2-4<5[12:1],3xh[24:1],{24},2,
{12}2/6-8>1[12:1],7xh[24:1],{24},6,{12}2/6,3xh[24:1],{48},,,,{16}2/6h[16:1],{48}2xh,1,8,7,6,5,4,3,2,{8}1h[8:1],5,
{1}3b/7bv2-8-5[2:1],
1-5[2:1]/5-1[2:1],
2-4-8-6[2:1]/6-8-4-2[2:1],
1v4[2:1]/5-8[2:1],
{8}2/7,{24}2-5[16:1],,6,{8}1,{24}2,,7,{8}7-4[16:1],{24}8,,1,{8}7,{24}3,,6,
{8}4-7[16:1],{24}5,,2,{8}4,{24}3>7[8:1],,6,{8}3,3/6h[8:1],,1/7,
{16}4,3,,6,{8}5,{16}8,7,,2,1,8,{8}7,{16}5-2[16:1],6,
,6,5,7,,7,{8}8,{16}7,6h[16:1],5h[16:1],4h[16:1],{4}3h[16:1],
{12}1/6h[6:1],2,3,4/7h[6:1],,5,6/2h[6:1],7,8,1/3h[6:1],,,6,
{24}5,6,,3,4,,,,,4,{12}5,{24}5,2h[8:1]`6h[8:1],{48},,,,,,,,,,,,,,,,{16}4,
5,,7,{8}4,{16}3,6,,6,4,7,{8}3,{16}2,5,
,5,3,6,{8}4,{16}3,5,,6,4,6,{4}3h[4:1],
{8}7,7,6/B2,6,6,6,5/B1,5,
5,5,4/B8,4,4,4,3/B7,3,
3,3,2/B6,2,2,2,1/B5,1,
1,1,8/B4,8,8,8,7/B3,7,
4-8[16:1],E7,{16}4,,,7,{8}E2/7-3[16:1],4,7,E3,
5-1[16:1],E8,5,{16}E4,2,{8}E5/2-6[16:1],8,2/E1,E6,
{16}1,B4,2,B8,4,B6,B1,7,5,B7,3,B5,1,B3,{24}2,5,3,
7,4,6,3,5,1,6,4,8,3,3,3,6,6,6,{48}8,1,2,3,4,5,6-2[24:1],7,8,1,2,3,4,5,6,7,8,1,
{8}2b/6b,C,8,3/B6,5/1,{16}B2,7,{8}5<8[8:1],{16}B7,3,
{8}5,B3,5/1,{16}8/B4,8,,,{8}1/B5,1-6[16:1],C,
1/3-8[16:1],C,3/5-2[16:1],C,5/7-4-1[4:1],C,1-6-3[4:1],C,
3-8-5[4:1],C,2,C,4,E7,{24}1-5[24:1],8,,2,7,,{4}1b/8b/Cf,
{8}2,{24}2,,6,{8}8-4[24:1],{24}7,,2,{8}8>3[24:1],{24}2,,6,
{8}8,{24}7,,2,{8}6,{24}3,,5,{8}2,{24}4,,1,{8}1-5[24:1],{24}8-4[24:1],,1,
{12}1x-3[24:1],{24}8,8x-6[24:1],,1,{12}1x-5[24:1],{24}8,8x-4[24:1],,1,{12}1x>8[6:1],{24}8,8x,,1,{4}1x,
{8}2b/6b,{24}4,,6,{8}6/C,{24}5,,3,{8}3/C,{24}4,,7,{8}7/C,{24}5,,2,
{8}2/C,{24}3,,5,{8}5/C,{24}6,,4,{8}4/C,{24}2,,7,{8}2/B6,{24}7,,2,
{8}7/B3,{24}4,,7,{8}3/B6,{24}5,,2,{8}6/B3,{24}4,,7,{8}2/B6,{24}5,,2,
{8}7/B3,{24}5,,8,{8}4/B7,{24}6,,3,{8}7/B2,{24}1,,7,{8}2/B6,{24}8,,2,
{12}7b/Cf,{24}5,5,,7,{12}B3,{24}1,1,,3,{12}B5,{24}7,7,,1,{12}B3,{24}5,5,,7,
{12}B1,{24}3,3,,5,{12}B7,{24}1,1,,3,{12}B2,{24}5,5,,3,{12}E6,{24}1,1,,7,
{12}E2,{24}5,5,,3h[12:1]`7h[12:1],,,,3,,7,{12}1-6[24:1],{24}5h[24:1],1,,5h[24:1],{12}1,5,{24}8h,6,
2h,4,8h,6,2h,8,4h,6,2h,8,4h,2,8h,6,4h,2,8h,6,{48}4h,3,2,1,8,7,6,5,4,3,2,1,
{1}4bh/8bh/Cf,
E
