&title=Luminaria
&artist=Kankitsu
&first=0
&des=NaOH
&clock_count=6
&lv_5=14
&inote_5=(227)
{4},,,,,,,,,,,,(227){24}7xV14-6[227#4:4]`2xV85-3[227#4:4],E3/E7,B3/B6,B4/B5,
(454){4},,,,,,,,,,,,(227){8}2h[4:1],,5,5h[8:3],,,1-5b[8:1],,1b,,,,
{8}
4xh[4:1],,7,7h[8:3],,1,1-4[8:1],,1-6[8:1],,1,,
4h[4:1],,8,8h[8:3],,5,5-2[8:1],,5-8[8:1],,5v4-1>5[4:4]`5!v6-1<5b[4:4],,
,,,,,,,,,,,,6-4[8:1],,36,2-5[8:1],,27,8<5[8:1],,8-4[8:1],,8b,,
5xh[4:1],,2,2h[8:3],,8,8-5[8:1],,8-3[8:1],,8,,
5h[4:1],,1,1h[8:3],,4,4-7[8:1],,4-1[8:1],,4V28V24[4:4]`4!V68V64b[4:4],,
,,,,,,,,,,,,2-5[8:1],,27,8<5[8:1],,28,1>4[8:1],,1-5[8:1],,1b,,
3,3,,15,,2,2-6[8:1],,7-3[8:1]/2,,1-5b[8:1]/7,,
7s3>5s1[4:9]/Cf/1b,,,,,,,,,,,,,,,,,,,,,,,,
{4}2h[4:3],,,8,7,6,5h[4:3],,4,4,,
3,4>1[4:1],,,5<8[4:1],,,2-5[4:1],,,7-4[4:1],,,2<3[4:4],8,6h[4:3],,,,
Ch[4:2],,,3x-6[8:1]`7x-2[8:1],3b/7b,,
{8}
7x<4[8:1],,3,2,1>4[4:1],,4p8[4:1],,8p4[4:1],,7<1[8:3],,
7x,,,,4,3,2-6[8:1],,6-1[8:1],,,,
2x>5[8:1],,6,7,8<5[4:1],,5q1[4:1],,1q5[4:1],,2>8[8:3],,
2x,,,,{16}E6,B5,B4,E4,{8}1x-5[8:1],,6x-1[8:1],,,,
7x<4[8:1],,3,2,1>4[8:1],,6-1[4:1],,1-5[4:1],,3,,
2x>5[8:1],,6,7,8<5[8:1],,3-8[4:1],,8-4[4:1],,6,,
6,6,5,6,7h[4:1]/4,,1,7,2,8,17,,
2h[8:5]/6h[8:5],,,,,,E2,E8,E3,E7,E4f,,
{16}
7x,6x,5x,4,1,2,3,4,1h[16:3]/5h[16:3],,,,1x/5x,84,73,62,5v7[8:1]`1v3b[8:1],,,,,,,,
8x,7x,6x,5,8,1,2,3,4h[16:3]/8h[16:3],,,,8x/4x,37,26,15,8q4[8:1]`4q8b[8:1],,,,,,,,
{8}
6xh[4:1],,5-1[8:1],4,3,,2h[4:1],,1-5[8:1],8,7,,
6,4,5,3,4,2,{16}4,3,2,1,8,7,6,5,4b/1b,,,,
8x,7,6,5,8x,7,6,5,4,3,2,1,
5x,6,7,8,5x,6,7,8,1,2,3,4,
8x,7,6,5,8x,7,6,5,4,3,2,1,
5x,6,7,8,5x,6,7,8,15,26,37,48,
{8}1bh[8:1]/5bh[8:1],,4h[8:1]/8h[8:1],,2h[8:1]/6h[8:1],,
1h[8:1]/7h[8:1],,3h[8:1]/5h[8:1],,1h[8:1]/7h[8:1],,
2-7[8:1],2,6-3[8:1],6,1-5[8:1],1,7-4[8:1],7,2-5[8:1],2,8,8,
{4}E2,E1/E3,E8/E4,E6,E5/E7,E4/E8,E1,E8/E2,E3/E7,E5,C,E1/D1,
{32}2x<3s7[4:11],E2/E6,B1/B5,B4/B8,E8/E4,,,,{4},,,,,,,,,,,
Ch[8:11],,,,,{8},8x,8v5[8:1]`8!v3b[8:1],,8,,,
26,7v4b[8:1]`1v4[8:1],,1b/7b/Cf,,,,
{16}
7x<4[8:1],,,,4,3,2,1,8>3[4:1],,,,3^6[4:1],,,,6<1[4:1],,,,1>4[8:1],,,,
6-3[8:1],,,,6,,2-7b[8:1],,,,2,,6,5,4,3,2,1,8,7,6-3[8:1]/2,,,,
1x>4[8:1]/6x,,,,5,6,7,8,1<6[4:1],,,,6^3[4:1],,,,3>8[4:1],,,,8<5[8:1],,,,
2-5[8:1],,,,2^7b[8:1],,,,2x,,,,4-1[8:1],,,,4v7b[8:1],,,,4bx,,,,
2x>5[8:1],,,,5,6,7,8,1<6[4:1],,,,6^3[4:1],,,,3>8[4:1],,,,8<5[8:1],,,,
3-6[8:1],,,,3,,7-2b[8:1],,,,7,,3,4,5,6,7,8,1,2,3-6[8:1]/7,,,,
8h[4:1]/3,,,,1p5[8:1],,2,,13,,,,4h[4:1],,,,5v2[8:1],,6,,57,,,,
6,,6,,4,,4,,7h[4:1]/5,,,,
{32}B1,B2,B3,B4,B5,B6,B7,B8,1bx,2x,3x,4x,5x,6x,7x,8x,1bx,,,,,,,,
{16}
7x<4[8:1],,,,4,3,2,1,8v3[8:1],,,,8<5[4:1],,,,5>2[4:1],,,,2^7[8:1],,,,
5-8[8:1],,,,5,,2-5[8:1],,,,2,,7,8,1,2,3,4,5,6,2-8[8:1]/7,,,,
2x>5[8:1],,,,5,6,7,8,1v6[8:1],,,,1>4[4:1],,,,4<7[4:1],,,,7^2[8:1],,,,
4-1[8:1],,,,4v7b[8:1],,,,4x,,,,8>3[8:1],,,,8<5b[8:1],,,,8-4[8:1],,,,
8b,,,,6,,6h[4:1],,,,2,,2h[4:1],,,,8,,8,,17,,17,,
2b>5[8:1]/6b,,,,27,,8b<5[8:1],,,,28,,2b-6[8:1],,,,6b-2[8:1],,,,C,,,,
8,,8,,57,,57,,46,,46,,3,,3,,24,,24,,15,,15,,
1x,2,3,4,5,6,7,8,1,2,3,4,5x/7x,8,1,2,3,4,5,6,1-5b[8:1]/7,2,3,4,
{4}1bxV35v2[4:9]`1!V75v8[4:9]/5bx/Cf,,,,,,,,,,,,
2h[4:2],,4,4h[4:3],,,E2,E3,E4,E8,E7,E6,C/E5,,,,,
7,7h[4:2],,5,4,3,2h[4:3],8h[4:2],,,A3/A7,,,
{8}4h[8:4]/5h[8:4],,,,,3,5-8[8:1]/4,,3b,,,,
(197){8}
3,3,4,2,5,3,
(212){8}6,6,5,7,7,4,
(227){8}8,1,7,2,6,3,6<3[4:1],,C,,,,
4,4,5,3,6,2,7,7,1,8,2,7,3,4,2,5,5h[4:1],,{12}4,5,4,6-1[8:1],5,6,4,,,
{16}
4b,3,2,1,4b,3,2,1,8,7,6,5,8b,7,6,5,8b,7,6,5,4,3,2,1,
4b,3,2,1,4b,3,2,1,8,7,6,5,8b,7,6,5,48,37,26,15,
8bxV24>8[4:4]`4bxV68<4b[4:4],,,,4b/8b,,,,,,,,,,,,,,,,,,,,
E8,B8,B1,E2,E4,B4,B5,E6,A7,D8,A8,D1,E3,B3,B4,E5,A7,D8,A8,D1,E4,B4,B5,E6,
E8,B8,B1,E2,
{4}3x<2z6[4:4],,,,,,{8}4,5,,27,,36,8-4b[8:1]/1,,1b/8b/Cf,,,,
{8}
3x-6[8:1],,38,7-2b[8:1],,37,4>1[8:1],,4<7b[8:1],,4,,
2x-7[8:1],,25,6-3b[8:1],,26,1>4[8:1],,1<6b[8:1],,1,,
2x-5[8:1],,26,7-4b[8:1],,27,1s5[8:2],,6h[4:1],,,,
7-4[8:1],3,7,3-8[8:1],6,3,7<4[8:1],,7-3[8:1],,7b,,
7x<4[8:1],,27,3>8b[8:1],,37,7-4[8:1],,7-3b[8:1],,7,,
8x<5[8:1],,38,4>1b[8:1],,48,8-5[8:1],,8-4b[8:1],,8,,
8x<5[8:1],,38,4>1b[8:1],,46,7s3[8:2],,2h[4:1],,,,
2-5[8:1],6,2,6-1[8:1],3,6,2>5[8:1],,2-6[8:1],,2b,,
{8}2x/7x,18,,18,3/6h[4:1],,{24}1b,2,3,4,,,1b>4[8:1],8,7,6,,,1b/8b,7,6,5,,,
{8}7x/2x,81,,81,6/3h[4:1],,{24}8b,7,6,5,,,8b<5[8:1],1,2,3,,,8b/1b,2,3,4,,,
{8}2x/6x,15,,15,3/7h[4:1],,{24}4b,3,2,1,,,8b>3[8:1],7,6,5,,,8b/7b,6,5,4,,,
{8}5x,37,,37,1/5h[4:1],,
{32}1b,2,3,4,5,6,7,8,1b,2,3,4,5,6,7,8,
{4}1bh[4:3],,,{8},{24}1x-4-7-1[4:12]`5x-8-3-5[4:12],B1,C,B5,
