&title=梦色轨迹
&artist=Hanser,永夜蛰居_TokoyoP
&first=-0.757
&des=276
&lv_5=13
&des_5=276
&inote_5=
(134){4},{8},,,,,,,4/3,
{4}5/2,{8}4/7,{16}5,6,4,5,3,4,
{8}2pp1[4:1],,,,,7<4[8:1],8,7,
,3>8[8:1],4,3,,7qq4[2:1],8,7,
,,,,{4}2,{8}4/3,2xh[8:3],
,,,4<8[4:1],,1,2,3,
4qq8[8:3],,,,,,,1>5[4:1],
,8,7,6,{16},,4,6,{4}1,
{8}2/4,3,5,6/4,7,1,{16}3,4,3,4,
{8}3,2,8/1,{16}7,6,{8}5h[4:1],3,{4}4,
4/6-4[8:1],6/2,5/3-5[8:1],3/7,
4/6-4[8:1],6/2,{16}3>8[8:1],4,{8}3,{4}Cf,
4/6-4[8:1],6/2,5/3-5[8:1],3/7,
4/6-4[8:1],6/2,8>3[8:1]*<5[8:1],8b,
{8}4x-7[8:1],4xp1[4:1],4x,4x,,,8,7,
6/2,3,4,5p4[4:1],,C,,,{2}1-3[8:1]/8-4[8:1],
5-1[8:1]/6-8[8:1],
{8}2pp5[4:1],1,8,7V51[4:1],,,,,{4}2/8-6[8:1],
4/8,1/7-1[8:1],7/3,
8/2-4[8:1],6/2<7>2[8:3],{2}7x/2x,
{4}6<1[8:1],6/4,3<6[8:1],3/1,
8>3[8:1],8/6,{16}5>2[8:1],4,{8}5<8[8:1],,,1x-4[8:1],
1xp6[4:1],1x,1x,,,5v3[8:1],3>7[4:1],
,,4,4h[4:1],,8,8h[8:5],Ch[2:1],
,,,,,2,{4}2h[4:1],
{8}4,5,6,2x/7x,{16}1,8,1,8,{8}2,3,
7/5,6/4,5/3,4/2pp1[4:1],,2/8,7,7,
6pp5[8:3],4,3,2,,1h[4:1],,,4/2,
3/5,6/4,5/7qq8[4:1],,7/1,{16},,2x,3x,
{4}4xqq5[4:1],{8}6pp5[8:3],6,,A4,A3,A2,
,5/1,2/6,7/3,{4}4/8>5[4:1],{8}8/7,6h[4:1],
,,{4}2h[4:1],{16}5,5,{8}4,3,8,
{4}8h[4:1],{8}2,2h[4:1],,3,4,5pp4[4:1],
,D1,D2,D3,{16}3x,4,{8}2,{16}6x,5,{8}7,
1/8,2/7,3/6,5bx/4bxw8[8:1],,,,,5/3>8[8:1],
6,{4}3/7<4[8:1],{8}1,2,3,1x>6[4:1],
,6,7,8,{4}1p8[4:1],{8}4,3,
{4}2V46[8:1],2/1,{8}8,7,4/6,2/8<3[4:1],
,3,2,1,{2}8bxqq5[8:3]*pp3[8:3],
{8},,4,4V28[4:1],,8,7,6<2[4:1],
,,2,3,4h[4:1],{16}D1,D8,{8}D7,{16}5,6,
{8}4,3/5,4/6,3/5v8[8:1]*v2[8:1],,5x,,7b/1b,
,3b/5b,7b/1b,2bV83[4:1]/6bV47[4:1],,,,,5/1>4[8:1],
3,5/1<6[8:1],7,5/1>4[8:1],3,5/1,7qq4[8:3],
,4,3,2,1x,5,6/2,7/3,
4/8>3[8:1],2,4/8<5[8:1],6,4/8>3[8:1],2,4/8<5[8:1],6,
4/8>3[8:1],2,{4}8/4xpp5b[4:1]*qq3b[4:1],{8},,,8,
1/7,2,3,4h[4:1]/5h[4:1],,,8/1,2/7,
,4V68[8:1]/3V57[8:1],{4}7V13[8:1]/8V24[8:1],{16},,,,,,4,5,
{8}4,6/3,2/7,1>4[8:1]/8<5[8:1],,8b/1b,,3/6,
,7/2,{4}2h[1:1]/7<5-1<8-4[8:7],{8},,,,,,,,,3>8[8:1],
4,3,
,7<4[8:1],8,7,,3qq8[2:1],4,3,
,,,,{4}6,{8}8/7,6xh[8:3],
,,,8>4[4:1],,5,6,7,
8qq4[8:3],,,,,,,5<1[4:1],
,4,3,2,{16},,4,6,{4}1,
{8}7/5,6,4,3/5,2,8,{16}5,6,5,6,
{8}5,7,1/8,{16}2,3,{8}4h[8:1],7,{16}5,6,4,5,
{1}3b>6[1:1],
E
