&title=恋ひ恋ふ縁
&artist=KOTOKO
&first=0.05
&des=
&des_5=レインボー☆
&des_6=レインボー☆
&lv_5=14
&lv_6=14+
&inote_5=(144){4}
,{8},,,,,,E8,
B2,B6,E4,,2h[8:1]/C,6h[8:1]/C,3h[8:1]/C,
E8/D8/C,E2/D2/C,E4/D4/C,E6/D6/C,{16},,B2,B3,{8}B4,B8/B7/E8,
{16}E2,B2,B3,E4,{8}8b,8b,{16}3,5,{8}2,8b,8b,
1-5[8:1],1,8-6[8:1],8,,2<6[4:1],,6>2[4:1],
,2<7[8:1],7pp2[8:3],7,E4/E5,E4/E5,E4/E5,E4/E5,
3/5,6,7/8,1/6-1[8:1],,2>5[8:1],2,1pp5[8:3],
,6-8[8:1],6,6,,4,4,4,
7b/1b,2,3/4,5/2-5[8:1],,6<1[8:1],6,4qq8[8:3],
,7-5[8:1],7,7,,1,1,1,
4/8-4[8:1],6/2-6[8:1],8b,2b,,7/5,6/4,5/3,
,1/2,1/8,8/7,{16},,6,7,6,7,{8}6,
,3-8[8:1],8-4[8:1],3,,6-3[8:1],3-7[8:1],6,
,1V35[8:1],2/5v2[8:1],1/6,7>3[4:1],7,3<7[4:1],3,
{4}7>3b[4:1],{8}3,3,{16},,5,3,5,3,{8}5,
{16}6,4,6,4,{8}6,1b/C,7b/C,2b/C,8b/C,1b/C,
,1-5[8:1]/7-3[8:1],6/2,1/7,,2-6[16:1]/6-2[16:1],7/3,6/2,
,5/3,6/2,7/1,7-3[16:1],1-5[16:1],7b,1b,
{4}6h[4:1],{8}3b,{16}3,4,3,4,{8}3,7b-2[16:1],3b-6b[16:1],
7b-4[16:1],3b-8b[16:1],7b-2[16:1],3b-6b[16:1],7b,3b,8qq4[8:3],8,
{4}3-1[8:1],{8}3b,A1f/A4f,,6/5-1[16:1],,5b/4-8[16:1],
,4b/3w7b[8:1],,3b,,,,4qq8[4:1],
7-5[8:1],4,7b,A5f/A8f,,2/1-5[16:1],,1b/8-4[16:1],
,8b/7w3b[8:1],,7b,,,7>2[8:1]/2q6[8:1],8/1,
{4}7/2,{8}1b/8b,7b/8b-2[16:1],,7b/8b-6[16:1],,1b/8b-2[16:1],
,7b/8b<5[8:1],,8b/1b>8b[56:13],,1b/8b,{56},,,,,,,,{28}1,2,3,
4,5,6,7,8,1bx,2,3,4,5bx,6,7,8,1bx,2,3,4,5bx,6,7,8,1bx,2,3,4,5bx,6,7,
{8}8,1-4[16:1],1-6[16:1],1w5b[8:1],1,1b,,,{4}4qq1[8:5],
{8}8,8<5[4:1],,,{4}C/D7,
8qq5[8:5],{8}4,4>1[4:1],,,{4}C/D3,
7xpp2[8:5],{8}3,3<6[4:1],,,{4}C/D5,
2xqq7[8:5],{8}6,6>3[4:1],,,{4}C/D5,
2bxq5[8:3],{8}5,5p3[4:1],,A5f,,,{4}7bxp4[8:3],
{8}4,4q6[4:1],,A4f,,,{4}1>4[4:1],
4<7[4:1],7>2[4:1],2>2b[4:3],
6bh[4:3]/A2,A5,D8,A2f,
{8}7b,8b,1b,2b,3b,6bx/2bx,{4}8bx/4bx,
{32}2/5,3/6,4/7,8/5b,,,,,7/4,6/3,5/2,1/4b,,,,,2/5,3/6,4/7,5/8,6,7,8,1,2,3,4,5,6,7,8,1,
{8}2,7b/8b,3b/4b,2b/1bw5[8:1],6b/5bw1b[16:1],1b,{16},,,,1/8p4[16:1],
,,2,{8}8/2q6[16:1],2,{16}2/7p3[16:1],,,7,{4}7/1,
{8}7b/8b,3b/4b,6b/5bw1[8:1],2b/1bw5b[8:1],{2}5b,
{4}2>4qq5[4:3],{8}8,7,{2}6h[2:1],
{8},2/8,3/5,7/1,{24}8,7,6,8/5,1,2,{32}3/8b-4pp4[4:3]*-4qq4b[4:3],7,6,5,4,3,2,1,
{1}8,
{8}8b/6b,1b/3b,7b/5b,5b/3b,5b/2b,{24}5/1,6/2,7/3,8/4,7x/3x,6x/2x,5x/1x,,,{4}4qq4[4:1]/5-2[8:1],
{8}4w8[8:3],A2f,{2}A4f,
{8},1-6[8:1],6-2b[8:1],2-4[8:1],A6f/4w8b[8:1],A2f,{4}A4f,
{16}8/1q5[16:1],,,7,{8}1/7p3[16:1],7,{16}7/2q6[16:1],,,2,{8}2/8p4[16:1],8,
8/2,3,5/4,6,{4}7q3[16:1]/1q5[16:1],A7f/A1f,
{16}2-4[16:1],,,6,{8}2/6-1[16:1],6,{16}6/3qq1[8:1],,,3,{8}3/8qq6[8:1],8,
{16}8/4qq2[8:1],,,7,{8}4/7qq5[8:1],7,{4}7/3>8b[16:3],3bh[4:1],
{24}7,6,5,4,3,2,1,8,7,6,5,4,3,2,1,8,7,6,5,4,3,2,1,8,
{32}7/3b,4,5,6,7,8,1,2,3,4,5,6,7,8,1,2,3,4,5,6,7,8,1,2,3,4,5,6,7,8,1,2,
{4}3/Ch[8:5],{24},,,,,,,,,,,,1,8,1,8,1,8,
{8}7/2<7[8:1],3,4,5>2b[8:1],6,7,8<5[8:1],1,
2,3-8b[8:1],4,5,6-1[8:1],4,3,2,
{4}3b/6bpp5[4:1],{8}6,4,{4}2bqq3[4:1],{8}2,4,
{16},,8/1,2/7,{8}6/3,B8/E8/D8/A8,D2/A2/B2/E2,B6/E7/A6/D7,A4/E4/B4/D4,Cf,
7/2-5[16:1],{16}1,1,{8}2/7-4[16:1],{16}8,8,{8}7/1-5[16:1],{16}8,8,{4}1/7,
{8}5/4b,4/3b,3/2b,2/1b,1/8b,8/7b,7/6b,6/5b,
{16},,6,5,{8}6,7b/4b,{16},,3,4,{8}3,5b/2b,
7-3[1.6667##0.1042],7,8-4[1.4542##0.1042],8,1-5[1.25##0.1042],1,2-6[1.0417##0.1042],2,
7bx,8bx,1bx,2bx,{2}A8/A7/A1/A2/A3/A4/A5/A6/E8/E6/E2/E4/E7/E3/E1/E5/B7/B6/B8/B1/B3/B2/B4/B5/D6f/D7f/D8f/D1f/D2f/D3f/D4f/D5f/Cf,
{8}3b/Cf,2b/Cf,1b/Cf,8b/Cf,7b/Cf,6bx/2bx,{4}8bx/4bx<4[2:1]*<4<4b[1:1],
4/Cf,{8}Cf/A8f,Cf/A2f,{2}Cf/A4f,
{8},7-3[16:1],8-4[16:1],7-5[16:1],8>4[8:1],7,{4}8,
{16}5/6-1[16:1],,,5,{8}6-8[16:1],3,{16}6/2-5[16:1],,,1,{8}2,7,
2-6[16:1],1-5[16:1],2>2b[4:1],1,{2}2,
{8}1-4[16:1],{16}5,5,{8}1V73[8:1],5,1/6,{16}6<1[8:1],5,{8}4,6>3[8:1],
4,6/2-6b[16:1],8-4-2-6[4:1],2,8,5,5,2b/8b,
1-4[16:1],1-6[16:1],1-3[16:1],1-5[16:1],1-7[16:1],1-4[16:1],1-6[16:1],1>4[16:1],
1<6[16:1],1w5b[8:1],1,1,,8-4[1.875##0.1042]/7-3b[2.2917##0.1042],{4}1-5b[1.6667##0.1042]/2-6[2.0792##0.1042],
1bh[2:1]/8bh[2:1],,,1b/8b,
{8}7b/2b,1-5[16:1],8-4[16:1],1>3[16:1],8<8b[4:1],1,{4}8-4b[16:1],
{64}A8,B8,Cf,B4,{16}A4,,2,{8}2V48[4:1],5,{32}2/8qq6[8:1],7,{16}6,{32},,,,A8,B8,C,E6,{8}A6,
4-8[16:1],5-1[16:1],4>4b[4:1],5,{32}4,A3,A2,A1,A8,A7,A6,A5,{4}A4f,
6/1>5[8:1],{8}1b/8,7,{4}4/6>2[8:1],{8}6b/7,8,
{4}5/4<8[8:1],{8}4b/3,2,{4}7/1w5[8:1],1b,
{24}E6,E5,E4,E3,E2,E1,E8,E7,E6,E5,E4,E3,E2,E1,E8,E7,E6,E5,E4,E3,E2,E1,E8,E7,
{40}2b/E6f,3,4,5,6,7,8,1,2,3,4,5,6,7,8,1,2,3,4,5,6,7,8,1,2,3,4,5,6,7,{4}Cf/8-4b[16:1],
{8}8b,1,2,6/2-6[16:1],,2b/1-5[16:1],,1b/8-4[16:1],
,8b/7-3[16:1],7-2[16:1],7-5[16:1],7-1[16:1],7-4[16:1],7,7,
1pp8[4:1],5,1,6pp6[4:1],,6p4[4:1],3,A6f/4p1[8:3],
,A4f,1<4b[8:3],B4/E5/B5/E4/B3,,3,3,3,
3/2,1/2-6[16:1],1/8,2/5b-8[16:1],,5/4b-1[16:1],,4/3bqq8[4:1],
,7,6,5b-8-6[8:1],,5,4,3,
E7/A7/B7/B3/A3/E3,B5/E6/A5/E2/A1/B1,E8/D8/B8/A8/E4/B4/A4/D4,A3f/A6f,{16}5,4,5,4,5,4,{8}5h[1:1],
,6,7,8,1,2,3,4b,
,1b-5b[16:1]/8b-4b[16:1],6b/3b,{64}8b/1b,B8f/B1f,Cf,B5f/B4f,
E
&inote_6=(144){4},,,,{32}1,
B1,,,7,B7,,,2,B2,,,8,B8,,,,,,,{8}2h[8:1]/C,6h[8:1]/C,3h[8:1]/C,
7bh[8:1]/C,4bh[8:1]/C,8bh[8:1]/C,2bh[8:1]/C,{16},,B2/E3,B3/E4,{8}B4/E5,B8/B7/E8,
{16}E2,B2,B3,E4,{8}8b,7b,{16}3,5,{8}2,7b,8b,
1-5[8:1],1,8-6[8:1],8,,2<6[4:1],,6>2[4:1],
,2<7[8:1],7pp2[8:3],7,E4/E5,E4/E5,E4/E5,E4/E5,
3/5,6,7/8,1/6-1[8:1],,2>5[8:1],2,1pp5[8:3],
,6-8[8:1],7,6,,4,4,4,
7b/1b,2,3/4,5/2-5[8:1],,6<1[8:1],6,4qq8[8:3],
,7-5[8:1],6,7,,1,1,1,
4/8-4[8:1],6/2-6[8:1],8b,2b,,7/5,6/4,5/3,
,1/2,1/8,8/7,{16},,3,2,3,2,{8}3,
,2p3[8:1],3>1b[8:1],2,,6p7[8:1],7<5b[8:1],6,
,1V35b[8:1],2/5v2[8:1],1/6,7>3[4:1],7,3<7[4:1],3,
{4}7>3b[4:1],{8}3,3,{16},,6,4,5,3,{8}4,
{16}3,5,4,6,{8}5,1b/C,7b/C,2b/C,8b/C,1b/C,
,7>2[16:1]/2-5[16:1],8/3,7/2,,2<7[16:1]/7-4[16:1],1/6,2/7,
,8/2,7/3,6/4,6-2[16:1],4-8[16:1],6b,4b,
{4}6h[4:1],{8}3b,{16}3,4,3,4,{8}3,2b-7b[16:1],6b-3b[16:1],
{32}2b-5b[16:1],B8f,,,6b-1b[16:1],B4f,,,2b-7b[16:1],B4f,,,6b-3b[16:1],B8f,,,2b,B8f,,,6b,B4f,,,{8}8qq4[8:3],8,
{4}3-1[8:1],{8}3b,A1f/A4f,,6/5-1[16:1],,5b/4-8[16:1],
,4b/3w7b[8:1],,3b,,,,4qq8[4:1],
7-5[8:1],4,7b,A5f/A8f,,2/1-5[16:1],,1b/8-4[16:1],
,8b/7w3b[8:1],,7b,,,3<6[8:1]/6q2[8:1],4/5,
{32},E7/B7/B6/A4/D4,,,,,,,{8}1b/8b,2b/1b-7[16:1],{48},,,,,,2b/1b-3[16:1],E1,E8,A7,,,,,,,,,8b/1b-7[16:1],E2,E3,A3,,,,,,,,,2b/1b>4[8:1],
E1,E8,A7,,,,,,,,,1b/8b<1b[56:13],D2,A2,D3,A3,D4,{8}A4,8b/1b,{56},,,,,,,,{28}8,7,6,
5,4,3,2,1,8b,7,6,5,4b,3,2,1,8b,7,6,5,4b,3,2,1,8b,7,6,5,4b,3,2,
{8}1,1b-4b[16:1],1b-6b[16:1],1bw5b[8:1],1b,1b,,,{4}4qq1[8:5],
{8}8,8<5b[4:1],,,{4}C/D7,
8qq5[8:5],{8}4,4>1b[4:1],,,{4}C/D3,
7xpp2[8:5],{8}3,3<6b[4:1],,,{4}C/D5,
2xqq7[8:5],{8}6,6>3b[4:1],,,{4}C/D5,
2bxq5b[8:3],{8}5,5p3[4:1],,A5f,,,{4}7bxp4[8:3],
{8}4,4q6b[4:1],,A4f,,,{4}1>4[4:1],
4<7[4:1],7>2[4:1],2>2b[4:3],
6bh[4:3]/A2,A5,D8,A2f,
{8}7b,5b,1b,3b,8b,6b/2b,{4}8b/4b,
{32}2b/5,3/6,4/7,8/5b,{8}6/1,{32}7b/4,6/3,5/2,1/4b,{8}3/8,{32}2/5,3/6,4/7,5/8,6,7,8,1,2,3,4,5,6,7,8,1,
{8}2,7b/8b,3b/4b,2b/1bw5[8:1],6b/5bw1b[16:1],1b,{16},,,,1/8p4[16:1],
,,2,{8}8/2q6[16:1],1,{16}2/7p3[16:1],,,7,{4}7/1,
{8}7b/8b,3b/4b,6b/5bw1[8:1],2b/1bw5b[8:1],{2}5b,
{4}2>4qq5[4:3],{8}8,7,{2}6h[2:1],
{8},2/8,3/5,7/1,{24}8,7,6,8/5,1,2,3/8b-4pp4[4:3]*-4qq4b[4:3],7,6,8/5,1,2,
{1}8b/3,
{8}8b/6b,1b/3b,7b/5b,5b/3b,5b/2b,{24}5/1,6/2,7/3,8b/4b,7/3,6/2,5/1,,,{4}4qq4[4:1]/5-2[8:1],
{8}4w8[8:3],A2f,{2}A4f,
{8},1-6[8:1],6-2b[8:1],2-4[8:1],A6f/4w8b[8:1],A2f,{4}A4f,
{16}8/1q5[16:1],,,7,{8}1/7p3[16:1],8,{16}7/2q6[16:1],,,2,{8}2/8p4[16:1],1,
8/2,3,5/4,6,{4}7q3[16:1]/1q5[16:1],A7f/A1f,
{16}2-4[16:1],,,6,{8}2/6-1[16:1],5,{16}6/3qq1[8:1],,,3,{8}3/8qq6[8:1],7,
{16}8/4qq2[8:1],,,7,{8}4/7qq5[8:1],8,{4}7/3>8b[16:3],3bh[4:1],
{24}7,6,5,4,3,2,1,8,7,6,5,4,3,2,1,8,7,6,5,4,3,2,1,8,
{32}7/3b,4,5,6,7,8,1/5h,2,3,4,5,6,7/3h,8,1,2,3,4/8h,5,6,7,8,1/5h,2,3,4,5,6/2h,7,8,1,2,
{4}3/Ch[8:5],{32},,,,,,,,,,,,,,,,1,8,1,8,1,8,1,8,
{8}7/2<7[8:1],3,4,5>2b[8:1],6,7,8<5[8:1],1,
2,3-8b[8:1],4,5,6-1[8:1],4,3,2,
{4}3b/6bpp5[4:1],{8}6,4,{4}2bqq3[4:1],{8}2,4,
{16},,8/1,2/7,{8}6/3,B8/E8/D8/A8,D2/A2/B2/E2,B6/E7/A6/D7,A4/E4/B4/D4,Cf,
7/2-5[16:1],{16}1b,1b,{8}2/7-4[16:1],{16}8b,8b,{8}7/1-5[16:1],{16}8b,8b,{4}1/7,
{8}2b/8b,6b/5b,4b/1b,3b/7b,1b/8b,6b-2b[16:1]/4b-8b[16:1],8b/3b,6b/4b,
{32},,,,2-6[16:1],3,2,3,{8}2,2b,{32},,,,5-1[16:1],6,5,6,{8}5,5b,
7-3[16:1],7,8-4[16:1],8,1-5[16:1],1,2-5[16:1],2-8[16:1],
2b-4b[16:1],2b-7b[16:1],2bw6b[16:1],2b,{2}2b/D4f/D3f/D2f/D1f/D8f/D7f/D6f/B5/B4/B2/B3/B1/B8/B6/D5f/B7/E1/E3/E7/E4/E2/E6/E8/A6/A5/A4/A3/A1/A7/A8/E5/Cf,
{8}3b/Cf,2b/Cf,1b/Cf,8b/Cf,7b/Cf,6b/2b,{4}8b/4b<4[2:1]*<4<4b[1:1],
4/Cf,{8}Cf/A8f,Cf/A2f,{2}Cf/A4f,
{8},7-3[16:1],8-4[16:1],7-5[16:1],8>4[8:1],7,{4}8,
{16}5/6-1[16:1],,,5,{8}6-8[16:1],3,{16}6/2-5[16:1],,,1,{8}2,7,
2-6[16:1],1-5[16:1],2>2b[4:1],1,{2}2,
{8}1-4[16:1],{16}5,5,{8}1V73[8:1],5,1/6,{16}6<1[8:1],5,{8}4,6>3[8:1],
4,6/2-6b[16:1],8-4-2-6[4:1],2,8,5,5,2b/8b,
5b-8[16:1],5b-2b[16:1],5b-7[16:1],5b-1[16:1],5b-3b[16:1],5b-8b[16:1],5b-2[16:1],5b<8b[16:1],
5b>2b[16:1],5bw1b[8:1],5b,5b,,6-2[1.875##0.1042]/5-1b[2.2917##0.1042],{4}3-7[1.6667##0.1042]/4-8b[2.0833##0.1042],
2bh[2:1]/6bh[2:1],,,3b/6b,
{8}5b/4b,1x-5[16:1],8-4[16:1],1>3[16:1],8<8b[4:1],1,{4}8-4b[16:1],
{64}A8,B8,Cf,B4,{16}A4,,2,{8}2V48[4:1],5,{32}2/8qq6[8:1],7,{16}6,{32},,,,A8,B8,C,E6,{8}A6,
4-8[16:1],5-1[16:1],4>4b[4:1],5,{32}4,A3,A2,A1,A8,A7,A6,A5,{4}A4f,
6/1>5[8:1],{8}1b/8,7,{4}4/6>2[8:1],{8}6b/7,8,
{4}5/4<8[8:1],{8}4b/3,2,{4}7/1w5[8:1],1b,
{24}3,4,2,6,5,7,3,4,2,6,5,7,3,4,1,6,5,8,3,4,1,6,5,8,
{48}3,4,5,6,7,8,1,2,3,4,5,6,7,8,1,2,3,4,5,6,7,8,1,2,3,4,5,6,7,8,1,2,3,4,5,6,7,8b-4[0.3819##0.1042],,,,,,,,,,,{8}8b,
1,2,6/2-6[16:1],,2b/1-5[16:1],,1b/8-4[16:1],
,8b/7-3[16:1],7-2b[16:1],7b-5[16:1],7-1[16:1],7b-4b[16:1],7,7b,
1pp8[4:1],5,1,6pp6[4:1],,6p4[4:1],3,A6f/4p1[8:3],
,A4f,1<4b[8:3],B4/E5/B5/E4/B3,,3,3,3,
3/2,1/2-6[16:1],1/8,2/5b-8[16:1],,5/4b-1[16:1],,4/3bqq8[4:1],
,7,6,5b-8-6[8:1],,5,4,3,
E7/A7/B7/B3/A3/E3,B5/E6/A5/E2/A1/B1,E8/D8/B8/A8/E4/B4/A4/D4,A3f/A6f,{24}4,5,4,5,4,5,4,5,4,5bh[1:1],,,,,,{8}6b,
7b,8b,1b,2b,3b,4b,
,4b-8b[16:1]/5b-1b[16:1],7b/2b,{64}5b/4b,B5f/B4f,Cf,B8f/B1f,
E
