&title=DOMiNUS_GRAiL
&artist=xi
&first=1.295
&des=Caerulea
&des_5=Caerulea
&lv_5=14+
&inote_5=(190){4},{16},,,,,,,,,,,,7pp6[4:3],
3pp2[16:11],{8}7,,,,,,,,,{4}5h[4:1],
4h[4:1],3h[4:1],
{1}2qq8[8:3]*pp5[4:3],
{4},4h[4:1],5h[4:1],6h[4:1],
{1}7>2V84[4:3],
{2}1-5[8:1],{4}3-8[8:1]/7-4[8:1],7qq5qq3qq1qq7[0.3158##2.5805],
{1}C,
{2},(175),
(157.5){1}Ch[1:1],
(190),
{4}5/3h[8:1],4/3h[8:1],3h[8:1]/2<7[8:1],2,
4/6h[8:1],5/6h[8:1],6h[8:1]/7>2[8:1],7,
{8}3,5,4,6,8>3[8:1],7,{4}8,
{8}6,4,5,3,1<6[8:1],2,{16}1,,,4,
{4}5h[4:1],{16}4,3,2,1,4,3,2,1,8,,,8,
{4}1h[4:1],{16}8,7,6,5,8,7,6,5,4,3,2,1,
{8}8-4[8:1],8,3-8[8:1],3,5-1[8:1],6,5,{16}2,3,
{8}4-8[8:1],4,7-4[8:1],7,1-5[8:1],2,1,{16}6,7,
{4}8h[4:1],{16}5,1,5,1,4,8,4,8,3,7,3,7,
{8}2h[4:1],{24}1,8,7,{8}6h[4:1],{24}2,3,4,{8}5,{24}7,8,1,2,3,4,5,6,7,
{4}1qq8[4:1]/8qq4b[2:1],,,Cf,
{8}2/5,3,{16}4,3,{8}4,5/2,4,{16}3,4,{8}3,
5-7[8:1],4,5,{24}1,2,3,{8}4-8[8:1],{24}8,7,6,{4}5/4,
{8}7/4,6,{16}5,6,{8}5,4/7,5,{16}6,5,{8}6,
4-2[8:1],5,4,{24}8,7,6,{8}5-1[8:1],{24}1,2,3,{4}4/5,
2b-5[8:1],{8}2/1,8,7-3[8:1],{16}6,5,{8}7,1,
{16}2>5[8:1],,,8,{8}2,8,1<6[8:1],{16}6,5,4,3,2,1,
{4}8-3[8:1]/4-7[8:1],4/8,1<6[8:1]/5>2[8:1],1/5,
{16}1,5,1,5,2,6,2,6,{8}3/7,{24}5,4,6,{4}5-1[8:1],
5b,{16}2,3,4,5,7,6,5,4,2,1,2,1,
3,8,4,5,3,6,8,7,{8}1,{16}1,8,{8}1,2/7,
{4}8b/1b,{16}1,2,3,4,2,3,4,5,3,4,5,6,
{8}7h[8:1],{24}1,2,3,{8}4,{24}8/1,7,6,{8}5,{24}1/8,2,3,{16}4,5,4,5,
{2}4pp1[2:1],{8}8,7,6,5,
{4}4q8v6[8:3],4,2-4[8:1]*-5[8:1],2,
6V48[4:1],4,{8}3,3,2,1,
{4}7/8V24v3[8:3],{12}4,5,6,{4}7-1[8:1],7,
{8}2-6[8:1],1,2,8,7-3[8:1],8,7,1,
{16}A2,D3,{8}A3,{16}A7,D7,{8}A6,{16}E2,E3,{8}E4,{16}E8,E7,{8}E6,
{2}4xh[4:1]/5xh[4:1],{8}3,3,5,5,
{4}4/6,{16}8,7,{8}1,3/4,{16}2/5,1,8,7,6,5,
{4}4>2-8[4:1],{16}7x,6,5,4,{4}3-5<7[4:1],{16}8x,1,2,3,
{4}4v1[8:1],4/8-6[8:1],8/3-8[8:1],3/5-1[8:1],
5<7-1[4:1],{16}2x,3,4,5,{4}6-4>2[4:1],{16}1x,8,7,6,
{4}5v8[8:1],5/1-3[8:1],1/6-1[8:1],6/4-8[8:1],
4,{8}7,6,5/2-8[8:1],4,{4}3/2,
1/7,{8}2/6,{16}3,3,{8}5,{16}4,4,{8}6,3/5,
2/4,3/5,4/6,5/7,6/8,7/5,6/4,5/3,
{16}2,4,2,4,2,3,2,3,2,1,2,1,2,1,{8}2,
{4}8-4[8:1]/1-5[8:1],Cf,E8/E1/E2,{12}7,7,7,
1,1,1,8b,8,8,2b,2,2,3/5,4/6,5/7,
{4}8h[4:1],{24}1pp6[2:1],2/7,3/6,4/5,,,,,,,,,{8}7,6,
{4}5-1[8:1]*-2[8:1],5,3/8<5[8:1],8,
1bh[4:1],Cf,2h[6:1]/5h[6:1],{12}6,4,4,
7,5,5,8,6,6,1b,1,1,3b,3,3,
{4}5<8[8:1],{24}1,2,3,4,,,{4}1<6[8:1],{24}5,4,3,2,,,{2}1bh[4:1]/5bh[4:1],
2h[4:1]/6h[4:1],
3h[4:1]/7h[4:1],{4}4/6,{12}7,5,6,
{4}8>4[4:1],4<8[4:1],,5h[4:1],
{2}1-6[4:1],5-2[4:1],
{4}1<5[4:1],5>1[4:1],,4h[4:1],
8,7,6h[4:1]/B6,4,
1,2,3h[4:1]/B3,{16}5,,,6,
{8}4,{16}7,8,6,1,5,2,4,5,6,7,1,2,3,4,
6,7,8,1,4,3,2,1,{4}8-3[8:1]/4-7[8:1],4b/8b,
{16}1,4,8,5,7,6,7,6,8,1,2,3,4,5,6/1,7/2,
{8}8/3,{16}3/8,2/7,{8}1/6,{16}5,1,{8}5,{16}2,6,3,5,4,4,
4,4,4,4,4,4,4,4,4h[32:1],4h[32:1],4h[32:1],4h[32:1],4h[32:1],4h[32:1],4h[32:1],4h[32:1],
{4}4bw8[0.3158##0.6672],(185),(175),(150),
(170)5bh[#2.32592]/1h[#1.352943],(180),{16},,,,,,,,(185),
,,B3,{4}C,,B5,
{1}4bh[#2.270271]/8h[#1.297295],
{4},5h[2:1],,,6-8b[8:1],
Cf,1-5[8:1],{16}4,3,{8}2,
{4}3-1b[8:1],Cf,(180)8-4[8:1],{16}4,5,6,7,
{1}8<8[0.3333##1]*V24-6b[2:1],
(175){4},{16}8,1,2,3,{8}8/4,3/7,2/6,{24}4,5,3,
(180){4}4,{8}2h[16:1],4h[16:1],3h[16:1],5h[16:1],4h[16:1],6h[16:1],
{16}3,2,1,8,E7,B7,B8,E1,2,3,4,5,E7,B6,B5,E5,
(185){4}1b-5[8:1],Cf,{16}7,4,7,4,6,3,6,3,
E7,B7,B8,E1,E3,B3,B4,E5,8,7,6,5,1,2,3,4,
(190){4}8b-4[8:1],Cf,{16}3,2,1,8,4,3,2,1,
5,4,3,2,6,5,4,3,2,1,8,7,6/1,2,3,4,
{4}5/Cf,{16}1,8,1,8,1,8,1h[32:1],8h[32:1],1h[32:1],8h[32:1],1h[32:1],8h[32:1],
(175){4}1bV38[8:3]*V74[8:3],,,Cf,
(190){8}2/7,{16}3,8,4,5,6,7,8,1/5,2/6,3/7,4/8,1,2,3,
{4}4<8[4:1],{16}8,1,2,3,{4}4-2[8:1],{16}2/4-8[8:1],1,8,7,
{4}6-1[8:1],{8}2-5[8:1],3,{16}5,6,7,8,{4}1-6[8:1]*>4[8:1],
1,{16}5,3,5,3,6,4,6,4,7,8,7,8,
{8}6,{16}6/1-5[8:1],2/7,{4}3/8,{16}4,3,2,1,8,7,6,5,
{8}4/8,{16}6,5,{8}7,3/4,{16}2,4,3,5,4,6,5,7,
{8}1,{16}3,4,{8}2,6/5,{16}7,5,6,4,5,3,4,2,
{4}3h[4:1],{24}2b,1,8,7,6,5,4/2-5[8:1],1,8,7,6,5,{4}4/2,
{8}7bx/4bx,4bx/7bx,{16}6,5,6,5,{8}2/7,7/2,{16}1,8,1,8,
{8}2b/5b,5b/2b,{16}3,4,3,4,{8}7/2,2/7,{16}8,1,8,1,
{4}8h[8:1],{16}1/5,6/2,7/3,8/4,{4}5bh[8:1]/1bh[8:1],{16}1/5,4/8,3/7,2/6,
{4}5bh[8:1]/1bh[8:1],{8}2/6,2/6,3b/7b,{16}5,6b/4,,3,{8}2b/4,
5-7[8:1],{16}6,3,{8}5,2,1-6[8:1],7,{4}1/5<8[8:1],
8/5,4>1[8:1],1/4,{16}8,7,6,5,
1,2,7,6,2,3,8,7,{8}4,{24}3/8,2/7,1/6,{8}8/5,{24}6/1,7/2,8/3,
1b/4,2,3,4,5,6,7/3b,8,1,2,3,4,5/1b,6,7,8,1,2,{4}7bh[24:5]/3h[24:5],
{24}8,1,2,4,5,6,1,2,3,5,6,7,2,3,4,6,7,8,3,4,5,7,8,1,
{4}5-2[8:1]/2-6[8:1],2/5V74-6[8:3],1,1-5[8:1],
{8}1,8,{16}4,7,{8}4,{16}6,3,{8}6,2/5,3/6,
{4}4-1[8:1]/7-2[8:1],7/4V25-3[8:3],{2}4/5-7[8:1],
{4}8-5[8:1]/1-6[8:1],1/8,1-4[8:1]/8-3[8:1],8/1,
5h[4:1],{16}4,3,2,1,8/5b,,,2b/7,,,{8}4/1b,
3/6b,{24}7,5,7,{8}5,{24}6,4,6,{8}4,{16}5,1h[8:1],,4,{8}3h[8:1],
6,{24}2,4,2,{8}4,{24}3,5,3,{8}5,{16}7,4b/7b,,1,{8}1b/6b,
{1}Cf/2-5<4>5[4:13]/7-4b[8:1],
,,{4},,{16},,{32}8b,
7,6,5,4,3,2,1,{8}4h[#1.157883]/8w4[1.4912##0.1667],
(180){4},8xh[2:1],,,{1}8b>5-8-3-6b[4:15],
E
