&title=懐かしき東方の血 ~ Old World
&artist=ZUN
&first=0.04
&des=Kondou
&lv_5=13+
&lv_7=蔵
&inote_5=(149.99)
{16}4,,,,4,4,6,,
(150)
3,,6,5,6,,3,,
3,,6,5,6,,3,,
3,,6,5,6,,3,,
3h[8:3],,4,,5,,6,,
7,,2,1,2,,7,,
7,,2,1,2,,7,,
7,,2,1,2,,7,,
7h[8:3],,4,,4,3,2,1,
6/8-6[8:1],,8,7,8,,5,,
5/4-2[8:1],,4,5,4,,8,,
8/1-5[8:1],,1,8,1,,6,,
4/3,,1,,6/5,,8,,
8/7-5[8:1],,7,8,7,,3,,
3/4-2[8:1],,4,3,4,,1,,
1/8-4[8:1],,8,1,8,,3,,3h[8:1],,
{32}2,1,8,7,
{16}6/2,1,8,7,
{8}6/5,,3-1[8:1],,3,,7-4[8:1],,7,,1-6[8:1],,1,,4-8[8:1],,4-6[8:1],,2-4[8:1],,8-4[8:1],,4<2[8:6],,
3,,3,,3,,3,4,5-7[8:1],,5,,1-5[8:1],,1,,7-3[8:1],,7,,5-8[8:1],,5-3[8:1],,5-7[8:1],,5-2[8:1],,5-8[8:1],,5-1[8:1],,5w1[8:1],,5,,3,3,1,{32}1,8,7,6,
{8}5-8[8:1],,5/4,,2>5[8:1],2,1/2,,7-4[8:1],,7/8,,2-5[8:1],6-4[8:1],2,6,
3>7[8:1],,3/4,,5<2[8:1],5,5/3-5[8:1],,3/2-6[8:1],,2/1-7[8:1],,4w8[8:1],4,4,,
6-2[8:1],,4/6,,3-7[8:1],3,3/5<2[8:2],5,5-3[8:1],,5,,5-1[8:1],8-4[8:1],5,8,
3p7[8:1],,6q2[8:1],,4q8[8:1],4,5p1[8:1],5,{32}2b,3h[32:11],,,
{16},,,,7,,{32}7,6,5,4,3,2,1,8,{16}7pp2[8:8]/3h,6/2,5/1,4/8,3h[8:3]/7,,,,,,,,
4,,,5,,,6,,7h[8:3],,,,8,,8h[8:2],,,,{8}5,5w1[8:1],,5>7[8:6],,,,7,7,6,6,5-1[8:1],,
3,3p7[8:1],3,3/6-1[8:1],6,6/2,
4h[8:2],5,5,8h[8:2],7,7,2h[8:2],1,1,6-3[8:1],6,2-7[8:1],2,
{16}5,5,,6,6,,
{16}1h[8:2]/2h[8:2],,,,,,8h[8:2]/7h[8:2],,,,,,
{32}6/2-5[8:1],3,4,5,6-3[8:1],7,8,1,
{16}2-6[8:1],,6,,2,,{32}8b,,,,4,3,2,1,8,7,6,5,{16}4b/2,,3bv8[8:1]/8,,1b/6,,
5/3,,7-3[8:1],1,7,,7/1-5[8:1],,2,,1/7-4[8:1],,6,,7/1,,3,,1^6[8:1],2,1,,2^5[8:1]/1,,3,,8-4[8:1]/2,,7,,
{32}8/1-5[8:1],2,{16}3h[16:1],,,
{32}1/8-4[8:1],7,{16}6h[16:1],,,
{32}8/1-5[8:1],2,{16}3h[16:1],,,
{32}1/8-4[8:1],7,{16}6h[16:1],,,
{16}1h[8:1],,,,7,8,7,,3,4,2,4,1,4,8,,6-4[8:1]/7,,8,,6/1,,2,,7,3,3,8,4,4,1,5,
2-7[8:1],,2,,4-1[8:1],,4,,6-3[8:1],,6,,8-5[8:1],,8,,7-3[8:1]/8,,6,,1-4[8:1]/7,,2,,1/8,7,6-2[8:1],5,4,3,2/6,,1h[8:5],,,,3,,3,,3,4,5,6,7/4b,8,1/4b,2,3/4b,,
6,5,6,3,6,1,8/7,,2,3,4/5,,6/8,,7/2,,
3,4,3,6,3,8,1/2,,7,6,5/1,2,3/7,6,
{32}5/4-8[8:1],3,{16}2h[16:1],,,
{32}4/5-1[8:1],6,{16}7h[16:1],,,
{32}5/4-8[8:1],3,{16}2h[16:1],,,
{32}4/5-1[8:1],6,{16}7h[16:1],,,
{16}4h[8:1],,,,1,2,1,2,5,4,5,4,7,8,7,8,1/6,,3/4,,8,2,8,2,6,4,5,2,1,3,7,8,1/6-2[8:1],,7,,6/3-7[8:1],,1,,5-1[8:1]/3,,8,,5/4,,2,,6/5h[8:2],,6,,7,,8,,1/3,,8/2,,7/1,,6/8,6,
{32}2,3,4,5,6,7,8,1,2,3,4,5,6,7,8,1,
{16}2h[8:1]/7,6,5,4,3h[8:1]/1,8,7,6,5/4,
&inote_7=(149.99)
{16}4,,,,4,4,6,,
(150)
3,,6,5,6,,3,,
3,,6,5,6,,3,,
3,,6,5,6,,3,,
3h[8:3],,4,,5,,6,,
7,,2,1,2,,7,,
7,,2,1,2,,7,,
7,,2,1,2,,7,,
7h[8:3],,4,,4,3,2,1,
6/8-6[8:1],,8,7,8,,5,,
5/4-2[8:1],,4,5,4,,8,,
8/1-5[8:1],,1,8,1,,6,,
4/3,,1,,6/5,,8,,
8/7-5[8:1],,7,8,7,,3,,
3/4-2[8:1],,4,3,4,,1,,
1/8-4[8:1],,8,1,8,,3,,3h[8:1],,
{32}2,1,8,7,
{16}6/2,1,8,7,
{8}6/5,,3-1[8:1],,3,,7-4[8:1],,7,,1-6[8:1],,1,,4-8[8:1],,4-6[8:1],,2-4[8:1],,8-4[8:1],,4<2[8:6],,
3,,3,,3,,3,4,5-7[8:1],,5,,1-5[8:1],,1,,7-3[8:1],,7,,5-8[8:1],,5-3[8:1],,5-7[8:1],,5-2[8:1],,5-8[8:1],,5-1[8:1],,5w1[8:1],,5,,3,3,1,{32}1,8,7,6,
{8}5-8[8:1],,5/4,,2>5[8:1],2,1/2,,7-4[8:1],,7/8,,2-5[8:1],6-4[8:1],2,6,
3>7[8:1],,3/4,,5<2[8:1],5,5/3-5[8:1],,3/2-6[8:1],,2/1-7[8:1],,4w8[8:1],4,4,,
6-2[8:1],,4/6,,3-7[8:1],3,3/5<2[8:2],5,5-3[8:1],,5,,5-1[8:1],8-4[8:1],5,8,
3p7[8:1],,6q2[8:1],,4q8[8:1],4,5p1[8:1],5,{32}2b,3h[32:11],,,
{16},,,,7,,{32}7,6,5,4,3,2,1,8,{16}7>5[8:8]/3h,6/2,5/1,4/8,3h[8:3]/7,,,,,,,,
4,,,5,,,6,,7h[8:3],,,,8,,8h[8:2],,,,{8}5,5w1[8:1],,5>7[8:6],,,,7,7,6,6,5-1[8:1],,
3,3p7[8:1],3,3/6-1[8:1],6,6/2,
4h[8:2],5,5,8h[8:2],7,7,2h[8:2],1,1,6-3[8:1],6,2-7[8:1],2,
{16}5,5,,6,6,,
{32}4h[8:2]/8,1,2h[16:3],,{16},,,,
{32}5h[8:1]/1,2,3h[16:3],,{16},,,,
{32}6/2-5[8:1],3,4,5,6-3[8:1],7,8,1,
{16}2-6[8:1],,6,,2,,4b,,
{32}1,7,1,7,1,7,1,7,
2b,8,2,8,3bv8[8:1],8,3,8,{16}4b,,
5/3,,7-3[8:1],1,7,,7/1-5[8:1],,2,,1/7-4[8:1],,6,,7/1,,3,,1^6[8:1],2,1,,2^5[8:1]/1,,3,,8-4[8:1]/2,,7,,
{32}8/1-5[8:1],2,{16}3h[16:1],,,
{32}1/8-4[8:1],7,{16}6h[16:1],,,
{32}8/1-5[8:1],2,{16}3h[16:1],,,
{32}1/8-4[8:1],7,{16}6h[16:1],,,
{16}1h[8:1],,,,7,8,7,,3,4,2,4,1,4,8,,6-4[8:1]/7,,8,,6/1,,2,,7,3,3,8,4,4,1,5,
2-7[8:1],,2,,4-1[8:1],,4,,6-3[8:1],,6,,8-5[8:1],,8,,7-3[8:1]/8,,6,,1-4[8:1]/7,,2,,1/8,7,6-2[8:1],5,6,7,8/6,,7h[8:5],,,,3,,3,,3b,4b,5b,6b,7b/8,8b/1,1b/2,2b/3,3b/4,,
6,5,6,4,6,3,1b/3,,6,4,2b/4,,8b/4,,6b/2,,6,3,6,2,6,1,3b/1,,6,4,4/3b,4/2b,4/1b,4/8b,
{32}7hb[16:1]/4,3,2,1,8/5,,,,
7hb[16:1]/4,3,2,1,8/5,,,,
6hb[16:1]/3,2,1,8,7/4,,,,
6hb[16:1]/3,2,1,8,7/4,,,,
{16}5hb[16:5]/2,,1,,8,,7,5,8,5,1,5,2,5,3,5,6b,,4,4,3,3,2,2,1,6,6,8,5,5,7,4,6,6,6,6,4,4,4,4,2,2,2,2,8,8,8,8,
{24}4,3,2,1/5,8,7,6/2,5,4,3/7,2,1,8/4,7,6,5/1,4,3,2/6,1,8,7,6/2,5,
{32}4,8,4,8,4,8,4,8,4,8,4,8,4,8,4,8,8b,4,7b,4,6b,4,5b,4,4b,3b/5,2b/6,1b/7,8b,7b/1,6b/2,5b/3,4,
