&title=Idoratrize World
&artist=A-one
&first=0.024
&des=蓬莱山香蒲
&lv_6=13+
&des_6=蓬莱山香蒲
&inote_6=
(170){4},,,,3/4,
3/4,{6}4/3,2/5,{24},{8}1h[8:7]/6h[8:7],
,,,,,,,,{4}6/5,
6/5,{6}5/6,7/4,{24},{8}8h[8:7]/3h[8:7],
,,,,,,,,5/4,
3,4/5,6,5/4,2,3/4,5,
4/3,3,3/4,4,3/4,2/5,6/1,3,
4/5,6,5/4,3,4/5,7,6/5,4,
{16}8,7,6,5,4/1,2,3,4,5/8,7,6,5,4/1,2,3,4,
{2}5h[4:1]/1b<6[8:1],{6}4h[6:1],3h[6:1],2h[6:1],
{2}1>4[8:1],{6}5h[6:1],6h[6:1],7h[6:1],
{8}8<2[4:1],,,,,8,8,7h[8:1],
{6}6h[6:1],5h[24:5],{24},{8}4h[8:5],{6}B7,B6,E6,
{4}7qq3[16:5],{8}7,1>7[4:1],,1,{4}8p5[16:5],
{2}8,{6}4/6,3/7,8/2,
{4}1>8[2:1],{8}6,6h[8:3],,,,5h[8:1]/3h[8:1],
,4h[8:1]/6h[8:1],,5bh[8:1]/7bh[8:1],,6h[8:1]/8h[8:1],,,{2}5h[4:1]/1b<6[8:1],
{6}4h[6:1],3h[6:1],2h[6:1],
{2}1>4[8:1],{6}5h[6:1],6h[6:1],7h[6:1],
{2}8<2[4:1],{16}8,,,7,,,{8}6h[8:1],
{6}5h[6:1],4h[6:1],3h[3:2],E5,B6,B8,
{4}7qq3[16:5],{8}7/3,1>7[4:1],,1,{4}8p5[16:5],
{2}8,{6}4/6,3/7,{24}8/2,,,1b>8[2:1],
{1},{8}6/2,
8-5[8:1]/4v1[8:1],,8/4,,7b/3b,,,6h[4:1],
8,5h[4:1],8,4h[4:1],8,6h[4:1],8,
1-6[8:1],1,5-2[8:1],5,7v4[8:1],7,1,2,
3h[4:1],1,4h[4:1],1,5h[4:1],1,3h[4:1],1,
8-3[8:1],8,4-7[8:1],4,2v5[8:1],2,8,7,
7h[4:1],8,2h[4:1],1,6h[4:1],5,3h[4:1],4,
7<4[8:1],7,3>8[8:1],3,7-4-8[4:1],7,3,2,
2h[4:1],1,7h[4:1],8,3h[4:1],4,6h[4:1],5,
{2}2-7[8:1]*-5[8:1],{16}5x/7x,4,3,2,1,8,7,6,
{4}5h[16:9]/7-3[8:1],7,{16}2,2,,5,{8}5,1h[16:3],
{16}4,4,,7h[16:5],{8}3,2,1h[4:1],{16}6,6,,5,{8}5,
{4}4h[16:9]/2-6[8:1],2,{16}7,7,,4,{8}4,8h[16:3],
{16}5,5,,2h[16:5],{8}6,7,8h[4:1],{16}3,3,,4,{8}4,
5h[8:1],6h[8:1],7h[8:1],8h[8:1],1h[8:1],2h[8:1],3,3h[8:1],
2h[8:1],1h[8:1],8h[8:1],7h[8:1],6,6h[8:1],7h[8:1],8h[8:1],
4h[8:1],3h[8:1],2h[8:1],1h[8:1],8h[8:1],7h[8:1],6,6h[8:1],
7h[8:1],8h[8:1],1h[8:1],2h[8:1],{2}3h[2:1],
1bh[2:1],{4}8bh[4:1],1-5[8:1]*-6[8:1],
1b,{24}5x/6xh[4:1],4,3,2,1,8,{4}7V53[0.3494##0.2329],{8}1-6[0.3494##0.1765]*-5[0.3494##0.1765],8,
{4}1b,{24}5x/6xh[4:1],4,3,2,1,8,{4}7-5-2[8:1],{8}1-6[8:1]*-5[8:1],8,
{4}1b,{24}5x/6xh[4:1],4,3,2,1,8,{4}7-4[8:1],{8}1<6[8:1],8,
{4}1/5-2-6[4:1],{8}5,7,8,1b-3[8:1]/8b-3[8:1],,1b-6[8:1]/8b-6[8:1],
,1b-5[8:1]/8b-4[8:1],,1b/8b,,6/3,7/2-6[8:1],8/1,
{4}2b,{8}5x/6x,4/7-5-1[4:1],,1,2,3,
{4}4/8<5[8:1],{8}8,1>4[8:1],,1,5,6,
{4}7v1[8:1]/3v5[8:1],7/3,8-5[8:1]/4-1[8:1],4/8-4[8:1]*-3[8:1],
8b,{24}4x/3xh[4:1],5,6,7,8,1,{4}2V46[6:1],{8}8-3[8:1]*-4[8:1],1,
{4}8b,{24}4x/3xh[4:1],5,6,7,8,1,{4}2-4-7[16:3],{8}8-3[8:1]*-4[8:1],1,
{4}8b,{24}4x/3xh[4:1],5,6,7,8,1,{4}2-5[8:1],{8}8>3[8:1],1,
{4}8/4-6-3[4:1],{8}4,2,1,4/8-4[8:1],,8/5,
,6,4/7-4-6[4:1],3/8,7,2b,3-8[8:1],4/5,
{4}3/6-1[8:1],6/3,{16}3,3,6,6,{8}4pp8[4:3]*qq8[4:3],5/3,
{1}4,
{8}6/2,8-5[8:1]/4-1[8:1],,4/8,,3b/7b,{4}1<6[8:1]*>4[8:1],
1b,{24}5x/6xh[8:1],4,3,2,1/5,4/8,{4}7/3-7[0.3494##0.1765],{8}1<6[0.3494##0.1765]*>4[0.3494##0.1765],8,
{4}1b,{24}5x/6xh[8:1],4,3,2,1/5,4/8,{4}7/3q7[8:1],{8}1<6[8:1]*>4[8:1],8,
{4}1b,{24}5x/6xh[8:1],4,3,2,1/5,4/8,{4}7/3,{8}5/1<6[8:1],6,
{4}1,{8}4/8>3[8:1],3,8,4<7[8:1]*v7[8:1],,4v1[8:1]*>1[8:1],
,4w8[8:1]*w8[8:1],,4,,5/3,6/2,7/1,
{4}2/8-4[8:1],{8}8/3,2-5-3[4:1],,8/2,7,6,
{4}1x>4[8:1],{8}1/8,7-4-6[4:1],,1/7,2,3,
{4}7v1[8:1]/3v5[8:1],3/7,8-5[8:1]/4-1[8:1],8<5[8:1]*>3[8:1],
8b,{24}4x/3xh[8:1],5,6,7,8/4,5/1,{4}2/6-2[8:1],{8}8>3[8:1]*<5[8:1],1,
{4}8b,{24}4x/3xh[8:1],5,6,7,8/4,5/1,{4}2/6p2[8:1],{8}8>3[8:1]*<5[8:1],1,
{4}8b,{24}4x/3xh[8:1],5,6,7,8/4,5/1,{4}2/6,{8}4/8>3[8:1],3,
{4}8,{8}5/1<6[8:1],6,1,5<8[8:1]*>2[8:1],,5-7-3-1[8:3]*-3-7-1[8:3],
,5,,,,4/6,7-4[8:1]/3-6[8:1],2/8,
{4}3-1[8:1]/7-1[8:1],3/7,{16}7/3,3/7,,4/6,{8}6pp1[8:7]/4qq1[8:7],3/7,
{1}4/6,
{8}3/7,1-4[8:1]/5-8[8:1],,5/1,,6b/2b,{16},,,,3b,
4,2,6,{8}1,8/6h[4:1],,3h[8:1],4h[8:1],5h[8:1],
{16}6b,7,5,8,{8}4,1/3h[4:1],,6h[8:1],5h[8:1],4h[8:1],
{16}3b,2,4,1,{8}5,8/6h[4:1],,1-7[16:1],1,5-3[16:1],
5,2-6[8:1],2,7-1[16:1],7,3,3h[8:1],4,
{16}4b,3,5,2,{8}6,1/7h[4:1],,3h[8:1],4h[8:1],5h[8:1],
{16}6b,7,5,8,{8}3,1/3h[4:1],,6h[8:1],5h[8:1],4h[8:1],
{16}3,4,2,7,8,6,3,4,{8}2,5/1,7,8/3,
5h[8:5],7,7,8-6[8:1],,8,{16},,,,7b,
8,6,1,{8}5,4/2h[4:1],,7h[8:1],8h[8:1],1h[8:1],
{16}2b,3,1,4,{8}8,5/7h[4:1],,2h[8:1],1h[8:1],8h[8:1],
{16}7b,6,8,5,{8}1,4/2h[4:1],,5-3[16:1],5,1-7[16:1],
1,6-2[8:1],6,3-5[8:1],3,7,7h[4:1],8,
{16}8b,7,1,6,{8}2,5/3h[4:1],,7h[8:1],8h[8:1],1h[8:1],
{16}2b,3,1,4,{8}8,5/7,{6}5bh/3bh,6bh/8bh,1bh/3bh,
{16}5bh/4bh,5,4,4,6,6,3,3,7,7,2,2,8,8,1,1,
{32}8,1,2,3,8b/4b,1/5,2/6,3/7,{4}4-7[8:1]/8-3[8:1],4b/8b,{8}2b/6b,8b/4b,
E
