&title=CRASH THE PARTY
&artist=KIRA / 巡音ルカ / Vivid BAD SQUAD
&first=1.03
&des_1=SetDesigner
&des_2=SetDesigner
&des_3=SetDesigner
&des_4=SetDesigner
&des_5=chips
&lv_5=13
&des_6=SetDesigner
&des_7=SetDesigner
&des=SetDesigner
&inote_5=(162),,,,
{8}E6/E7/1z5[4:1],,,,,,E2/E1,E5/E4,,1/2,8h[4:1],,,6,5h[4:1],,3h[4:1],,B5h[4:2],,8,,E2/B2,,2,3h[8:3],1,,E8/B7,,1,,Cf/2v5[8:1],6,7h[2:1]/2,,4-8[8:1],,4,,,,7/8p4[8:1],,8,B1/B2,B3/B4,,3,3/4,6,5/6,E2/E3,,2,1,8h[4:1],,1,2,1/7,6,5/3-1<8[8:1],2,3/7h[4:2],,E1,,B2,,E4,E5,8h[4:1],,1,2-5[8:1]/8-4[8:1],,2/8,,,4/6,3/7,2/8,C,B1,,1v6[8:1],2,3,,7h[4:1],B6,4h[4:1],B1,8h[4:1],B4,3,2,7h[4:1]/8<7-5-3>2v8[4:2],,,,,,,,5,4,3/4,2h[4:1]/3,,,E8,E7,E6h[4:1],,1v4-6[8:3],,1/6,7,8,,2/8<6-4[4:1],,8/2,3h[4:1],,6,7,8,1/2-4[8:1],,2,,1/7,1,1/5,1,1/3v8[8:1],,2/3,,4h[4:1],,E8,E2,E7,E3,E6,E4,E5,E3,E6,E2,E7,E1,E8,1b/2b,3b/8b,4b/7b,5b/6b-8>1[8:1],5,4h[4:1]/6,,8,,8,1,2>5[8:1],7,2,,8pp2[8:1],1,7/8,,4,5h[8:1]/6h[8:1],,5/6,7,8,1h[8:1],B8,2h[4:1],B7,6h[4:1],B2,3h[4:1],B5,4x,3,6h[4:1],
{16}8,1,2,,6,5,4,,2v4[8:1],,1,,2b,,,,8,7,6,,1/2-5[8:1],,2,,2/3,,
{8},8,
{16}2,1,2,1,3,8,3,8,4,7,4,7,5,6,5,6,5,4,3,2,1,8,7,6,5bs1[8:1]b/4bz8[8:1]b,,
{8},,,2,2,5,4,5h[4:1]b,,3,3,6,5,7h[4:1]/6>5-1[8:3],,6b,,,8,2,2,3,4,2h[4:1]b,,5,5,6,7,8h[4:1]/1v4>3[4:1],,1b/2-5-7[4:1],,,,4,3/8,2,1,8b/6h[4:1],,2,2/5,4,3,3h[4:1],,2b,5,3,6,4/5,4/5,3,2,1b/8,7,6/5,6/4,3h[8:3],,,,1h[4:1]/8<7-5[8:1],,8,2,3,3/4,3,3/6,4,
{16}8,7,6,,
{8}1,1h[4:2],,E7,E6,E5,
{16}B8,B1,B2,,B6,B5,B4/2,,
{8}2,4,4,6,
{16}B2,B3,B4/8,,
{8}8,1,6,1,5h[8:1],2,
{16}B2,B3,B4,,B8,B7,B6/1,,
{8}1,6,7,8,
{16}2,3,4/5,,
{8}5,5/7,
{16}3,4,3,,
{8}3,2/5,
{16}4,3,4-8[8:1],,4,3,2-6[8:1],,,,2/5-1[8:1],,,,5/3-7[8:1],,,,3/8-3[8:1],,,,Ch[1:1],,
{8},,,,,,,1,2,3h[4:1]/4,,6,7,8h[4:1]/1,,,,1/2,2-5[8:1],8,2,,,1/2v5[8:1],8,7,6h[8:1],,,2/8v5[8:1],,8/3,,3/5,2,4/6,7,1v7-5[4:1],1,1/2h[4:1],,,3,4h[4:1],,5h[4:1],,2,1,8v3[8:1],7,8/1-5[8:1],1,1,,4z8[8:1],,4/7-3[8:1],7,7,,1-6[8:1],2,1/3,,3h[4:1],,5,5/2,5,5/8,E2h[4:2]/6,7,8<5[8:1],,8,,3h[4:1],,5,6h[4:1],2v5[8:1],1,1h[4:1],,6h[4:1],,8q4[8:1],,8/7,6,5q1[8:1],,5/4,3,2,,1/7,6,8/2,3,6,5,4,4h[4:1],,2,2h[4:1],,8,8h[4:1],,,7-4[8:1]/1,2,1-5[8:1]/7,6,1/7,,5,5h[4:1],,7,7h[4:1],,1,1h[4:1],,,2,,2h[4:1],,3h[4:1],,4h[8:1],,4h[8:1],,4h[8:1]/5,6,4h[8:1]/7,,7h[8:1],,6h[8:1],,5h[8:1],,4h[8:1],,5h[8:1],,5h[8:1],,5h[8:1]/4,3,5h[8:1]/2,,2h[8:1],,3h[8:1],,4h[8:1],,5h[8:1],,2/8-4[8:1],3,2-5[8:1]/8,7,2/8,,7/1-5[8:1],6,7-4[8:1]/1,2,7/8-4[8:1],6,7/8,,3/5-1[8:1],2,3-8[8:1]/5,6,3/5,,6/4-8[8:1],7,6-1[8:1]/4,3,6/5/6,7,6h[8:1]/5h[8:1],,3h[8:1]/4h[8:1],,,,1q5[8:1]/2>4[8:1],,1/2,,8p4[8:1]/7<5[8:1],,8/7,,3/8,3,3/7,3,3/6,,2,3,4/5,,5/6,,6/7,,2,2,2h[4:1],,8,7,3q1[8:1],4,3/6,,4/5,B3,4/5,B6,4/5,3,2,1,7/8,B6,7/8,B1,7/8,C,7/8,6,5,4,2/3,4b,2/3,1b,2/3,C,4/5h[4:1],,7h[4:1],,1h[4:1],,3h[4:1],,4h[4:1],,,,E
