&title=daisuke (with pv)
&artist=Y&Co
&first=-0.853
&des=m桑
&lv_5=1
&des_5=m桑
&inote_5=
(157){4},,,,3h[8:1],
2h[8:1]/E8/B7/B6/E6,3h[8:1],4h[8:1],
3h[8:1],6h[8:1],2h[8:1],7h[8:1],
8/1h[8:1],1/8h[8:1],7/2h[8:1],2/7h[8:1],
4/6h[8:1],3/5h[8:1],2/6h[8:1],3/5h[8:1],
6/3h[8:1],2h[8:1]/E8/B7/B6/E6,7/4h[8:1],8/3h[8:1],
1/2h[8:1],2/1h[8:1],3/8h[8:1],2/6h[8:1],
7/3h[8:1],5/1h[8:1],8/4h[8:1],7/2h[8:1],
{1}E1/E3/B2/E2/B8/E8/B7/B3/E7/E6/B5/E5/B4/C/B1/B6/E4,
{16}4,5,4,5,4,5,{8}4,{16}6/2,5,,3,{4}7/4,
{16}4,5,4,5,4,5,{8}4,{16}3/7,6,,2,{4}5/3,
{16}4,5,4,5,4,5,{8}4,{16}6/2,5,,3,{4}4/7,
{16}3,6,2,7,{8}1,{16}1,8,1,8,{8}1,{16}2,7,3,6,
4,5,4,5,4,5,{8}4,{16}7/2-4[8:1],6,,1,{4}2/6,
{16}5,4,5,4,5,4,{8}5,{16}2/7-5[8:1],3,,8,{4}7/3,
{16}4,5,4,5,4,5,{8}4,{16}7/2-4[8:1],6,,1,{4}2/6,
{16}5,4,5,4,{8}5,{16}3,6,3,6,{8}3,{16}4,5,{8}4,
4/6h[1:2],3,4,4,4,3,,2,
1,2,3>5p2b[2:1],4,{2}3,
{8}2xh[4:5],8,7,6h[16:1],{16},5,,6h[16:1],,,{8}7,
{4}8-5[8:1],8,{8}3/7,5/1,,,6/5,
7,8/1,2,4/3,5h[8:9],,3h[4:1],
,,4,3,2,1-4[8:7],,1b,
,,,,,,,,{4}3/7,
5/1,{8}7/3,6/2,,3h[2:1],
,,{4}4h[8:3],5h[8:3],6h[8:3],
{8},7,8,1,2/7,,,6h[2:1],
,,{4}5h[8:3],4h[8:3],3h[8:3],
{8},2,1,8,7/2,,,3,
7,7-4[8:1],2,7,2,,,6,
2,2-5[8:1],7,2,7,,,7,
6h[8:1]/2h[8:1],,,3h,{4}4h[8:1]/5h[8:1],{8}6/3,7/2,
{4}8<1[4:3]/1>8[4:3],8/1,,,E1h[4:1],
,{8}1,2,3,4,
{4}5h[8:1]/4h[8:1],7/2,{8}4/3,5,6,8/7h[4:1],
,2,,,2/1,3,4,{16}5/6h[4:1],E5,
B4,B3,{8}E3h[8:1],{4},{8}6/4,3,2,6/1-5[4:1],
,5<1[4:1],,1V35[4:1],{16},,,,,,,,2/6,
A6/A2,{8}B6/B2,Ch[8:1],,8,7,{4}3h[8:1]/8h[8:1],
1/2-6[8:1],2/1,{8},8-5[2:1],,,,,,,,1-4[2:1],
,,,,,,,7-3[4:1],
,7,
,4-1[4:1],,4,,8-5[4:1],,8/1h[8:7],
,,,,{2}5h[4:1],
{1}E1h[2:1]/B1h[2:1]/B5h[2:1]/E5h[2:1],
{16}3,5,3,5,3,5,{8}3,{16}6/1,5,,2,{4}7/3,
{16}4,6,4,6,4,6,{8}4,{16}3/8,7,,2,{4}6/3,
{16}3,5,3,5,3,5,{8}3,{16}6/1,5,,2,{4}3/7,
{16}3,6,2,7,{8}1,{16}8,8,8,8,{8}8,{16}1,7,2,6,
3,5,3,5,3,5,{8}3,{16}7/2-4[8:1],6,,1,{4}2/6,
{16}6,4,6,4,6,4,{8}6,{16}2/7-5[8:1],3,,8,{4}3/7,
{16}3,5,3,5,3,5,{8}3,{16}7/2-4[8:1],6,,1,{4}2/6,
{16}5,3,5,3,{8}5,{16}2,6,2,6,{8}2,{16}3,5,{8}3,
{1}5h[4:7]/4h[1:3],
,6h[4:5],
{4},3,4b/2b,6b/8b,
{8}4/5h[8:3],,,4h[4:1],,3h[8:1],2h[8:1],1h[8:1],
8h[8:3],,,7h[8:5],,,,,{4}8h[4:1],
7h[32:23],{32},,,,,,,,,,,,,,,,6x,
5xh[16:3],,,,,,,6x,7xh[16:3],,,,,,,6x/5x,4xh[16:7],,,,,,5xh[4:1],{64},,,,,,,,,,,,,,,E6/E4,
B7/B6/B2/B3,E8/E2,{32}1xh[32:11]/8xh[32:11],,,,,,,,,,,,,,,{8}8/1-5[8:1],2,1/8-4[8:1],7,
{4}8/1,7x/6x/3x/2x,{8}2/1,8,7,6h[4:1]/5-2[8:1],
,5,,,,8-5[2:1],8,8,
,,,,,1-4[2:1],1,1,
,,,,,4/5,6/3,2/7,
,1/8,,1/7x,,2x/5xh[8:9],,A2/D3/E3/A3,
,2x-7-2[8:3]/3x-6-3[8:3],,3x/2x,,,,,{1}B7/B6/B2/B3/E2h[2:1]/E4h[2:1]/E6h[2:1]/E8h[2:1],
{16}3,5,3,5,3,5,{8}3,{16}7/2-4[8:1],6,,1,{4}2/6,
{16}6,4,6,4,6,4,{8}6,{16}2/7-5[8:1],3,,8,{4}3/7,
{16}3,5,3,5,3,5,{8}3,{16}7/2-4[8:1],6,,1,{4}2/6,
{16}6,3,7,2,{8}8,{16}1,1,1,1,{8}1,{16}8,2,7,3,
6,4,6,4,6,4,{8}6,{16}7/2-4[8:1],6,,1,{4}2/6,
{16}6,4,6,4,6,4,{8}6,{16}2/7-5[8:1],3,,8,{4}3/7,
{16}3,5,3,5,3,5,{8}3,{16}7/2-4[8:1],6,,1,{4}2/6,
{16}5,3,5,3,{8}5,{16}2,6,2,6,{8}2,3x-7[16:1]/5x-1[16:1],5x/3x,
{16}5x/3x,A7/C/B3/A3/B7/A1/B1/B5/A5,
E
