&title=トウキョウ・シャンディ・ランデヴ
&artist=MAISONdes feat. 花譜, ツミキ
&first=0.47000003
&des=Ragna
&lv_5=12+
&inote_5=(137){16}
,{32}4,5,{16}4,5,,5,{1}
3V57[8:7]*<3[4:7],,{8}
5h[8:5],,,,,{16}4,,8,1,,2b/7b,{8}
,,,,1-5[8:1]/8z4[8:1],27,,,
6^8[8:1]/3,,4^2[8:1]/6,,5^7[8:1]/4,,3^1[8:1]/5,,
6qq7[4:1]/3,,46,,1h[4:1],8h[1024:1],8h[1024:1],,{16}
2,5,3,6,4h[8:1],,7,,6h[16:3]/5,,,4,5,,2,4,
1,8,2,7,3v5[8:1],,5-3[8:1]*V71[4:1],,{4}3-1[8:1],,
8qq4[2:1]/2,2,2,2,
3qq8[2:1]/5,5,5,5,
5qq7[2:1]/1,1,1,1,
8/1s5[4:1]*p4[4:1],,,5pp5[4:1],
4,3qq3[4:1],4,7qq7[4:1],
4,1pp1[4:1],8,6V48[4:1],8,
2s6[4:1],6,8h[4:1],{8}1,75,
64,35,24,{16}1,8,,27,,6h[16:3]/4h[16:3],{8},,
3h[8:1]/5,,7h[8:1]/4,,1h[8:1]/5,,7h[8:1]/3,,
2h[8:1]/4,,6-8[8:1]/5h[8:1],,4h[8:1]/6,,1-5[8:1]/3h[8:1],,
2h[8:1]/1,,1-5[8:1]/6h[8:1],,7h[8:1]/1,,8^5[8:1]/4h[8:1],,
3h[8:1]/8,,24,3,5-3[8:1]/4,6,75,6,
5-2[8:1]/3,4,75,6,5-1[8:1]/3,4,75,6,
5>1[16:3]/2,4,75,6,5^8[8:1],,5/1^4[8:1]*-5[8:1],,
1^6[8:1],,1v4[8:1]/5v8[8:1],,5<4[16:5]/1,,15,,
,{16},7,5,,45,,2,4,,1/7b,,1b/7h[16:3],,,
5,,46,,3h[8:1],,4,2b,,,,18,,7,2,6,
4-1[8:1],,5,,4b,,8h[1024:1],,8h[1024:1],2,7,3,6h[8:1],,5,7,
3h[8:1],,4,2,6h[8:1],,5,8h[8:1],,1,,27,,6,3,5,
4V63[4:1],,7,,4b,,8h[1024:1],,8h[1024:1],,2b,1b,,4h[16:3]/8b,,,
5,,63,,7h[8:1],,1,8b,,,,73,,4,5,3,
4-8[8:1],,2,,4b,,1h[1024:1],,1h[1024:1],7,3,5,2h[8:1],,4,3,
7h[8:1],,5,6,3h[8:1],,4,1h[8:1],,8,,,36,3h[16:3]/6h[16:3],,,
,,84,84,{4},,{32}1/8b,2,3,4,5,6,7,8,
1/7b,2,3,4,5,6,7,8,{16}1/6b,,,,4-8[8:1]/2,,3,,4pp1[16:5]/6,,5,,
14,,2,2h[16:3],,,,,38,,47,,6-8[8:1]/5,,,5,
6,,2,,3-1[8:1]/4,,,4,3,,7,,18,,18,27,
36,,45,,27,,1b/8b,,1b/8b,,,,{32}8/1b,7,6,5,4,3,2,1,
8/2b,7,6,5,4,3,2,1,{16}8/3b,,,,7/5-1[8:1],,6,,5qq4[16:3]/3,,4,,
85,,6,6h[16:3],,,5,,74,,83,,1/2^5[8:1],,,1,
2,,6,,7^4[8:1]/8,,,8,7,,3,,12,,3,4,
,6,5,7,1w5[8:1],,28,,1b,,,,{32}1/8b,2,3,4,5,6,7,8,
1/6b,2,3,4,5,6,7,8,{16}1/4b,,,,5^2[8:1]/3,,4,,5pp1[16:5]/7,,6,,
15,,2,2h[16:3],,,,,38,,47,,6-1[8:1]/5,,,5,
6,,2,,3-8[8:1]/4,,,4,3,,7,,18,,18,27,
36,,45,,27,,1b/8b,,1b/8b,,,,{32}8/1b,7,6,5,4,3,2,1,
8/3b,7,6,5,4,3,2,1,{16}8/5b,,,,6/4^7[8:1],,5,,4qq4[4:1]/2,,3,,
48,,6,6h[16:3],,,5,,74,,83,,1/2q6[8:1],,,1,
2,,7,,7p3[8:1]/8,,,8,7,,2,,1b/2b,,,,
,,,,1v4[8:1]/7v4[8:1],,26,,1b/7b,,,,
3h[8:1]/5h[8:1],,,6h[8:1]/4h[8:1],,,
2h[8:1]/5h[8:1],,,7h[8:1]/4h[8:1],,,
15,,2,4,3,,45,,75,,8,1,6,4,8,2,{8}
5,1b/7b,,,,,,,
E
