&title=超ナイト・オブ・ナイツ
&artist=COOL&CREATE
&first=0
&des=Tzddxg & Wind & NaOH
&des_5=Tzddxg & Wind & NaOH
&lv_5=14
&inote_5=(193){2},
{4}1bq5[8:1]/7b-2[8:1],17,{8}6x,6x-1[8:1]b,,2-5[8:1]b,,8-4[8:1]b,,3-8[8:1],,7,7,6,5b-8[8:1]/1b-7[8:1],,15,,2,2-5[8:1]b,,6-1[8:1]b,,4-8[8:1]b,,7-4[8:1],,3,3,3,25,,7,7,1,1,6,6,{16}3,4,{8}3,2,2,{16}6,5,{8}6,7,7,{16}2,1,2,,7,8,7,,2,1,3,,7,8,6,,3x,4,3,4,2,,6,5,6,5,7x,,1x,8,1,8,{1}1x>8[4:3],{4}1>8[2:1],,,{16}1x-5[8:1]b,1x,1x,1x,{2}1x>8[4:5],,,{8},,
1,1,2hb[4:1]/8,,8,1b>7[2:1]/7,{2},E1/A1f/E2,{4},{16}3,4,3,4,{4}2b-8[8:1],7,7x-4[8:1],1,1b-5[8:1],17,6x-1[8:1],46,4b>1[8:1],4x/7-4[8:1],3-8[8:1]/7x,3x/6,{8}17,17,28,28,{16}3,7,4,6,{4}5,
{8}3b,3,{16}7,1h[8:1],,8,{8}2h[8:1],8h[4:1],3,3,6,6,{16}2,8h[8:1],,1,{8}7h[8:1],1h[8:1],6,6,3,3,{16}6,4,,5,{8}3,6h[8:1],1,1,6,6,{16}3,5,,4,{8}6,3h[8:1],8,8,{16}3b,4,3,4,3,,6x,5,6,5,{8}6,2,2,{16}7b,8,7,8,7,,2x,1,2,1,{8}2,7,7,{1}4-1[4:2]*-8-5[4:2],{16}2b/6b,,,3x/7x,,,4x/5x,,{4}4x-1[8:1]/5x-8[8:1],4b/5b,
{8}3,3,{16}6,5,{8}6,7,7,{16}3,4,3,4,{8}2,2,{16}7,8,7,8,{8}7,5,3,1,6,6,{16}3,4,{8}3,2,2,{16}6,5,6,5,{8}7,7,{16}2,1,2,1,{8}2h[8:1],{24}8x,7x,6x,{8}5x,,3,{16}6,5,{8}6,2,{16}5,4,{8}5,2,2,7h[8:1],1,1h[8:1],6,6h[8:1],4,4h[8:1],8,7,3,{16}6,5,{8}6,3,{16}3,4,{8}2,8b,,{16}1,8,{8}1,27,27,{24}2x,3x,4x,{8}5x,,
{8}6,
6,{16}3,5,{8}3,
7,7,{16}4,6,4,6,{8}1,1,{16}7,8,7,8,
{8}7b,7b,4b,8b,3,3,{16}6,4,{8}6,
2,2,{16}5,3,5,3,{8}8,8,{16}2,1,2,1,
{8}2b,{16}8,7,{8}6h[8:1],3,5,{16}3,4,{8}3,7,
{16}4,5,{8}4,7,7,4,4,6,6,
2,2,5,5,{16}2,4,3,4,{8}1b,{16}3,5,
4,5,{8}1b,{24}2,3,4,5/8bh[4:1],{16},,,{48},{8}3,7,7,
{24}1b,2,3,8/4,7,6,{4}1b/5,8w4[8:1],{16}8b,Cf/B4/B5/B3/B8,{4},{8},3x,
3xh[8:3],{4},1<5[8:3],
3,2,1-5-2[16:7],6,
{8}7,7h[4:1],,1>5[8:3],{4},6,
7,8-4[8:1],{2}2h[4:1],
{8}2,5/1-5[8:1],,7h[8:3],{4},{12}4,7,7,
3,6,6,2,5,5,{2}1-4[8:1]*-5[8:1],
{8}3x/7x,7x-1[8:1]/3x-1[8:1],,3/7,,{16}4,6,{8}4,4,
{24}7,6,{12}5,,{24}1w5[8:1],2,{6}3,1-3-5-7-1>1[2:11],{4},,,{12},{32}E2,
B2,{4},,,{16},,,{32}E3,
B3,{4},,,{16},,,{32}E4,
B4,{4},,,{16},,,{32}E5,
B5,{4},,,{16},,,{32}E6,
B6,{4},,,{16},,,{4}5,
5,
{8}6/2,6v1[8:1]/2-5[8:1],,6/2,,8x/4x,8x/4x,3/7,
1b/5b,{4},{8}2/6,,{16}3,5,{4}3,
{8}7/2,2-8[8:1]/7-4[8:1],,2/7,,1x/5x,1x/5x,2/6,
{2}4b/8b<1[1:1],B3/B4/E4,
B6/B5/E6,{12}7,5,6,3,4,2,
{4}1bv4[8:1]/8bq5[8:1],1b/8b,
{16}
1x,,28,,3,4,3,,8x,,17,,6,5,6,5,
7,,18,,3,4,2,4,3h[16:1],,2h[16:1]/4h[16:1],,1h[16:1]/8h[16:1],,2h[16:1]/7h[16:1],,
6x,,57,,8,1,7,,3x,,24,,1,8,2,8,
1,,17,,6,5,7,5,6h[16:1],,5h[16:1]/7h[16:1],,1h[16:1]/8h[16:1],,2h[16:1]/4h[16:1],,
5x,,46,,3,4,2,,7x,,48,,7,5,6,5,
7,,26,,1,5,2,6,3^8[8:1],,{24}8,7,6,5-1[8:1],,,6,,,
{16}2xV48[4:1]/5x,,,,25,,,,7,,5-2[8:1]*-8[8:1],,,,
5,,,,37,46,5^8^3[4:1]b,,4x,,4h[4:1]/A5f,,,,,,,,
3x/4x,,2x/5x,,3,4,3,,5x/6x,,47,,6,5,7,5,
8,,17,,2,6,3,5,4h[16:1],,1h[16:1]/7h[16:1],,5h[16:1]/6h[16:1],,2h[16:1]/8h[16:1],,
3x/4x,,25,,1,8,2,,3x/7x,,56,,7,4,6,5,
7,,28,,7,3,6,4,5h[16:1],,8h[16:1]/2h[16:1],,4h[16:1]/3h[16:1],,7h[16:1]/1h[16:1],,
2x/6x,,34,,6,5,7,,4x/8x,,37,,2,8,1,7,
2,,34,,5,2,6,1,7,,{24}18,27,36,45,,,36,,,
{16}2bh[16:1],1h[16:1],2h[16:1],1h[16:1],2h[16:1],,
7bh[16:1],8h[16:1],7<4[8:1],8h[16:1],7h[16:1],,3,,1h[8:3],,,,
{24}3,4,5,6,,,{16}7-3[8:1],,1s5[4:1]b,,,,,,,,
{4}6x-4-1-6>6[4:10],,,,,,,,,,,,
{8}3bx/5x,26,3bx/5x,2V48[4:1]b/6V48[4:1]b,1bx/7bx,,,,
6bx/B1f/E2/B2,,,,8b/E4f/B3/B4,,,,1b/B5f/B6/E6,,,,3b/D7/A7f/E7,,,,
34,34,45,45,56,56,67,6/7h[4:1],,{16}8,1,2V48[8:3]b,,7,,7-5[8:1],,,,,,,,
2-5[8:1]/6-1[8:1],,,,2b/6b,,,,
3/4h[8:1],,2,,1,4,2,5,
3,,15,,7-2[8:1],1,5,4,7-5[8:1],,5-1[8:1],,7,,3,,
4,,26,,7,5,8,,17,,26,,3,4,2,5,1,,26,,2-6[8:1],8,4,6,2>5[8:1],,8,,2,,7,,
1bh[16:1],8bh[16:1],2bh[16:1],7bh[16:1],3bh[16:1],4bh[16:1],2bh[16:1],5bh[16:1],
1b-5[8:1]b,8bh[16:1],2bh[16:1],7bh[16:1],B1/Cfh[64:1]/B5,,,,
8bh[16:1],1bh[16:1],7bh[16:1],2bh[16:1],6bh[16:1],5bh[16:1],7bh[16:1],4bh[16:1],
8b-4[8:1]b,1bh[16:1],7bh[16:1],2bh[16:1],B8/Cfh[64:1]/B4,,,,
{8}26,2/6h[8:1],{32}A1,B1,C,B5,A5,,,,{8}73,7/3h[8:1],{32}A8,B8,C,B4,A4,,,,
{4}1x-4[8:1],1<6[8:1]/8,1-5[8:1]*>4[8:1]/2,1,
{8}2x/6x,2xh[8:1]/6xh[4:1],,,1x/5x,26,37,4h[8:3]/8,,,
7h[4:1],,6h[4:1],,5,,4^1<5[4:5]*^1s5[4:5]b/Cf,,,,,,,,,,,,,,,,
{16}3,4,2,7,8,6,1,5,3,4,2,7,5,6,3,4,1w5[8:1]b,,,,
A1/B1/B7/B3/Cf/B4/B5/B6/E5/E6/A5/D6/D5/A4/A6,E
