&title=ローリンガール
&artist=wowaka
&first=0
&des=敬爱。
&des_5=
&lv_6=13+
&inote_6=(195){4},,,,4/3V14[2:3],
3h[2:3],{2},,,{4}4/5V74[2:3],
5h[2:3],{2},,,{4}4/3s7[4:5],
3h[2:3],{2},,,{4}8/7s3[4:5],
7h[2:3],,,,,,{24}2,
1,8,7,6,5,
{4}4/8-3[8:1],3,{8}4-8[8:1],4,{4}5,
7-4[8:1],1,{8}3-7[8:1],3,{4}6,
5/1-6[8:1],6,{8}5-1[8:1],5,{4}4,
2-5[8:1],8,{8}6-2[8:1],6,{4}3,
4/8>3[8:1],3,{8}4-8[8:1],4,{4}5,
7<4[8:1],1,{8}3-7[8:1],3,{4}8,
5/1<6[8:1],6,{8}5-1[8:1],5,{4}4,
2>5[8:1],8,{8}6w2[8:1],6,{4},4/8p4[8:1],
2,{8}8q4[8:1],8,{4}6,
7V13[16:3],2,{8}4V68[16:3],4,{4}7,
5q1[8:1],3,{8}5p1[8:1],5,{4}7,
6V42[16:3],3,{8}1V75[16:3],1,{4}6,
8-4[8:1],2,{8}8-4[8:1],8,{4}6,
7V58[16:3],2,{8}4V25[16:3],4,{4}7,
8V63[16:3],8/2,{8}1V36[16:3],1,{4}1,
{8}8,8,4,4,{16}3,5,3,4,2,4,2,4,
{2}1>1[2:1],1>1[2:1],
{4}2q5[2:1],{2},{8}6,6,
{4}7V15[8:3],1,{8}4,4V25[2:1],,4h[8:5],
{4},,,3/5,
2-5[16:3],2,1-6[16:3],1,
3q5[2:1],3,,{8}6pp4[2:1],6h[8:5],
{4},,,{8}3qq5[2:1],3h[8:5],
{4},,,1/7,
6/4h[4:1],5h[4:1],2h[4:1],{8}8,8h[4:1],
,5,{4}5>2[8:1],5-8[8:1],5,
1h[4:1],4h[4:1],5h[4:1],{8}7,7h[4:1],
,8,{4}8>3[8:1],8-5[8:1],8pp8[8:3],
{2}8,{8}6,8,6,6-4[8:1],
,1,{4}1,3/4,5pp4[16:5],
{8}5>1[4:1],{2},{8}8,8,1,
2/5,3,7/4,6,{16}2,5,2,4,2,4,2,4,
{4}1,7/5h[4:1],{8}6,4,5,3h[4:1],
,5,4,5/6,7,{16}4,5,{8}4,2,
{4}6/4,5/4h[4:1],{8}6,4,5,3h[4:1],
,5,4,5/6,7,1,{4}1,
3,2/4h[4:1],{8}3,5,4,6h[4:1],
,4,7,5/3,2,{16}5,4,{8}5,7,
{4}3/5,4/5h[4:1],{8}3,5,4,6h[4:1],
,4,5,6/8,{16}1,5,1,5,1,5,1,5,
{2}1b>1[2:1],1>1[2:1],
{4}7qq4[2:1],{2},{8}3,3,
{4}3V15[8:3],8,{8}6,6s2[2:1],,6h[8:5],
{4},,,6/4,
7<4[16:3],7,1-5[16:3],1,
8qq1[2:1],8,,3<3[2:1]*>3[2:1],
{8},,,,,5,1qq4[8:3],1h[8:3],
{2},5/2h[4:1],
{4}7-4[8:1]/5-2[8:1],7/5-1[8:1],{8}1,{4},{8}8/2-6[8:1],
{4},7-4[8:1]*-2[8:1],{8}7,{4},{8}1<6[8:1],
,4-7[8:1],{4}4,{8}1-5[8:1],1,8,8>3[8:1],
,8,{4}4-8[8:1],4/7<4[8:1],1/7,
5/2h[4:1],1b,4/7h[4:1],8b,
4/1h[4:1],8b,5/8h[4:1],1b,
2V41[8:3]/6V85[8:3],{2},{4}8,
{8}2/5,3,4/7,6,{16}2,5,2,5,2,5,2,5,
{4}1b-5[8:1],1w5[8:1],{8}1,{4},{8}5/3h[8:3],
{4},8w4[8:1],{8}8,{4},{8}4/6h[4:1],
,1-3[8:1],1,5pp8[8:3],{4}5,{8}1,1>5[4:1],
{4},{8}6<2[4:1],6,{4}8,4,
7V51[4:1]*-4[8:1],7,{8}2h[8:3],{4},{8}8-5[8:1],
{4},2V48[4:1]*-5[8:1],{8}2,{4},{8}7h[4:1],
,2-4[8:1],1,7-5[8:1],8-2[8:1],7>5[4:1],8,7,
,1,1-4[8:1],1-6[8:1],{2},{4}1/8b-4[8:1],
8w4[8:1],{8}8,{4},{8}4/6h[8:3],
,2-5[8:1],1-6[8:1],2,1,{4},{8}5/3h[4:1],
,8-3[8:1],8,4-8[8:1],4,7,7,1>5[4:1],
,8,{4}8w4[8:1],8,2/6,
1-3[8:1]/4-8[8:1],1/4,4-8[8:1]/7-5[8:1],4/7,
2-4[8:1]/4-8[8:1],2/4,7-5[8:1]/5-1[8:1],7/5,
2>5[8:1]/4-1[8:1],2/4,8<5[8:1]*-4[8:1],8,
1>4[8:1]*-5[8:1],1<6[8:1],1>4[8:1],1,
{8}8b-4[8:1],1,{4}8w4[8:1],{8}8,{4},{8}4/6h[8:3],
,1,{4}1w5[8:1],{8}1,{4},{8}5/3h[4:1],
,8-6[8:1],8,4-2[8:1],4,7-5[8:1],7,3V17[4:1],
{4},{8}6V42[4:1],6,{4}8,1,
2-5[8:1],2V84[4:1],{8}8/2,{4},{8}6-1[8:1],
{4},2V84[4:1],{8}2/8,{4},{8}7h[4:1],
,2-5[8:1],1,7-4[8:1],8-3[8:1],7>5[4:1],8,7,
,1,1>4[8:1],1<6[8:1],{2},{4}1/8b-4[8:1],
8w4[8:1],{8}8,{4},{8}4/6h[8:3],
,2V48[4:1],{4}1<6[8:1],{8}1,{4},{8}1-7[8:1],
,1,6-2[8:1],6,3V17[16:3],4,4,5h[4:1],
,6,6<1[8:1],4,{4}6/2-4[8:1],2,
5-1[8:1]/6-8[8:1],6/5,3-1[8:1]/4-8[8:1],3/4,
6<1[8:1]/5q1[8:1],6/5,3>8[8:1]/4p8[8:1],4/3,
6h[2:1]/5<4[8:3],{2},{16}8,4,8,4,
8,4,8,4,8-5[8:1],4,8-3[8:1],4,{2}8b,
E
