&title=Elusive Enforcer
&artist=K-forest vs. Reku Mochizuki
&first=0
&des=福音
&lv_5=14
&inote_5=(185){1},,,
{4}3h[4:7],A6,,E6,,E5,,A4,
6h[4:7],A3,,E4,,E5,,A5,
2h[4:7],A8,,E8,,E7,,A6,
7h[4:5],A8,,E1,,E2,2-5[8:1]/6-8[8:1],2b/6b,
{8}5x>1[6:1],,6,,4<8[6:1],,3,,
2-4[8:1],1-5-7-3[8:3],2,1,,4,4h[4:1],,
{8}1<5[6:1],,2,,8>4[6:1],,7,,
6-8[8:1],5-1-3-7[8:3],6,5,,,8,8,
{8}5-1^3[4:1],,6,,4-8^6[4:1],,3,,
1^4[8:1],,1/5-1-4-8b[8:3],,,,,,
{4}2-8-4[4:1],4-2-6-8[8:3],,,
{8}1hx[8:5]/5hx[8:5],,,,,,B3/B7/E3/E7/Cf,,
4h[4:1]/6h[4:1],,,2h[4:1]/5h[4:1],,,8b>7[2:1]/4h[4:3],,
,,,,,,2/8,,
5h[8:1]/3h[4:1],,,7h[4:1]/4h[4:1],,,1b<2b[2:1]/5h[4:2],,
,,,,1-5[8:1],,1,,
{8}4/6,7,3/5,2,{16}5h[4:1]/6,,,8,8,,4,,
{8}5/3,2,6/4,7,{16}4h[4:1]/3,,,1,1,,6,,
{8}8bx/3,2/7b,1/6b,8-3[8:1]/5bh[4:1],,8,1bv6^8-5[2:1]*v4^2-5[2:1],,
{4},,,B2/B4/B8/B6/Cf,
{16}1/7,,,3,4,,6/5,,5/6,,7,5,6h[8:1],,2,4,
3h[16:3],,,1,1,,2/8,,7,6,5,4,1,2,3,4,
{4}5h[4:1]/7>4[6:1],7,{16}1x,,1,,7b,5b,7b,5b,
6,4,6,4,{8}5q1[8:1]/3x,6,5/2v5[8:1],3,6/2,7,
{16}3/8,,,6,5,,3/4,,4/3,,2,4,3h[8:1],,7,8,
6h[16:3],,,5,5,,4/7,,2,1,3,8,4,7,5,6,
{16}8-4-7[6:1],,,,{8}1/8,,3,3,{16}6,6,4,4,
{4}3qq8[8:3]/5pp8[8:3],,,B1/B7/E2f/E7,
5/6<4[4:1],,{8}5xV71-3[4:1],,,4x>6[4:1],,,5x-1[8:1],,5xw1b[8:1],,5x,,
3v8[8:1]/7-4[8:1],,3/7,,2/5,6,4/7hx[8:1],3,
2/5,6,4/7hx[8:1],3,1/2,4,7/8,5,
2bq6[8:1]/1b,,2/8,8,{16}7,1,,6,5,,4/7,,
{8}1/2,4/3,{16}6,5,,7,8,,6/1,,2,4,,4,
{8}3b-6[8:1],3,8,8h[8:1],{16}5x,7,4,6,3,5,2,4,
{4}1p8<3[2:1],,,D7/A7f/D8/B7,
{4}3h[8:1],3h[8:1],{16}3h[8:1]/B1/E2,,,E5,3h[8:1],,B1/E2,,
{4}3h[8:1]/5h[8:1],6h[8:1]/4h[8:1],3h[8:1]/4h[8:1],7h[8:1]/1h[8:1],
{4}6h[8:1],6h[8:1],{16}6h[8:1]/B8/E8,,,E5,6h[8:1],,B8/E8,,
6,E5,,,{8}2/7,3/6,5-8[8:1]/4-1[8:1],,4b/5b,,
{4}Ch[4:7]/1x,2h[8:1],3h[8:1],4h[8:1],
{8}5,5,4,4,3,3,2,2,{16}1,7,1,7,8,6,8,6,
{32}1,2,3,4,5,6,7,8,1,2,3,4,5,6,7,8,
{4}1b,,1p5[8:1]*q5[8:1],{64}1b,Cf,,,,,,,{8},
{4}8bx-3-6-1-4-7-2-5[4:5]/2bhx[4:6],,,,
,,,B5/B4/B3/B2/E5/E4f/E3/A5/A4/A3/A2/D5/D4/D3,
1bx-6-3-8-5-2-7-4b[4:5]/7bhx[4:6],,,,
,,,8-4[12:1]/5-1[12:1],
,{8},{32}A2,E3,B3,B4,{16}E5,,8,8,{8}6h[8:1],5h[8:1],
3-1[8:1],4,3,5,4-2[8:1],5,A4f/6pp5[8:3],,
{4}6b/1,{8},{32}A2,E3,B3,B4,{16}E5,,6,6,{8}8h[8:1],1h[8:1],
{16}3h[8:1],,7,,3/7,2/6,1/5,4/8,3-6[8:1]/7-2[8:1],,1x/5x,,3/7,,,,
{8}4hx[4:1],,,4h[4:1],,,4,,
3h[4:1],,,3h[4:1],,,3,,
{8}4h[4:1]/5^8[2:1],,,4h[4:1],,,4,,
3h[4:1]/8^5[2:1],,,3h[4:1],,,3h[8:1],,
{8}4x,3,2/5,{16}3x,4,3,4,{8}2,5x,4/6,
{16}7x,5,{8}7,2/8,{16}6x,5,6,5,{8}7,{16}1x,2,3,4,
{8}5/6x,{16}7,8,7,8,6x,,{8}1/2,3/8,4x/7x,5/6,
7x^4[8:1]/4x^1[8:1],4/7,,,,2/8,3b/7b,,
{4}3V17[2:1]/5,5,5,{8}5,E8,
5,E1,5,E2,6,E3,7,E4,
{4}8V64b[2:1]/4x,2,2,{8}2,B5/A5,
2,E7/D7,3,A8/B8,4-1[8:1]*-7[8:1],4,,,
{8}8/4x,8,7/4,7,6/4,6,5/4,5,4/5,4,3/5,3,2/5,2,1/5,1,
{16}2,8,2,8,3,7,3,7,4,6,4,6,3,5,3,5,
{8}4xV25V38[12:7],4,5,6,7-3b[12:1],,7b,,
{8}1/5,{16}2<4[4:1],4,{8}3,2/8,,8x,7,6,
4/5,{16}3qq5[8:3],4,{8}2,8/3,,5x,6,7,
4/8,3,2/5,6,1-5[8:1]/7,6-8[8:1],1,6,
,6^1[8:1]/2^5[8:1],1/5,2/6,,2/8,3/7,4/6,
2/5,{16}3,6,{8}5,7/8>6[4:1],,6,7,1V75-3[4:1],
,3,2,8-4-2[4:1],,5,6,7,
8-3[8:1],2,8,5-2[8:1],,5/7-3[8:1],,1/7,
{8},4/6,3/7,2/8,{16}1,1,1,1,2b/8b,,,,
{8}4/6,{16}7>5[4:1],5,{8}6,7/1,,1x,2,3,
5/4,{16}6pp4[8:3],5,{8}7,1/6,,4x,3,2,
5/1,6,7/4,3,8/2-5[8:1],6-1[8:1],2,6^3[8:1],
,8w4[8:1]/6,1,8b,,{16}6,4,6,4,3/7,,
{8}8p4[8:1],3^8[8:1],8
,3,,2/4,3/5,4/6,
7/5,7^1[8:1],1,3^1[8:1]/7^5[8:1],,3/7-2[8:1],,4/7,
5,4/8,3/7,2/6,{16}1,1,3,3,5,5,7,7,
{4}1bpp5b[8:3]*qq5[8:3],,,Cf/B3/B7/A3/A7,
{16}5,6,7,8,2,3,4,5,8x,4,8,4,7x,3,7,3,
7,6,5,4,7,6,5,4,7x,3,7,3,6x,2,6,2,
6,7,8,1,4,3,2,1,6x,8,6,8,5x,1,5,1,
5,6,1,2,5,6,2,3,6,7,3,4,7,8,4,5,
8,7,6,5,3,2,1,8,5x,1,5,1,6x,2,6,2,
6,7,8,1,6,7,8,1,6x,2,6,2,7x,3,7,3,
7,6,5,4,1,2,3,4,7x,5,7,5,8x,4,8,4,
5h[8:1]/7h[8:1],,,4h[8:1]/2h[8:1],,,1/8,,2-5[8:1]/7-4[8:1],,1x/8x,1x/8x,2b/7b,,,,
{4}3/6<5b[4:1],E1f,{8}1x-5[8:1],8,1x/7,8,
{8}7-4[8:1],4-7[8:1],7-2[8:1],2V48[4:1],,3hx[4:1],,,
5/7,6,4/5,3,1/2,3/4,5/6,7/8,
{16}2b-6-4-8[4:1],2b,{8}1b,2,7bqq1b[4:1],,1,2,3,
5/8x,7,1/4,2,{16}6-1[8:1],5,7,4,{8}6b,5,
3/4,2,1/7,6,{16}3-8b[8:1],4,2,5,{8}3b,4h[8:1],
{16}1x,5,2,6,3,7,4,8,5,1,5,1,{32}5x,6,7,8,1,2,3,4,
{8}5/6b,{24}7b/8b,6,5,{8}4,1bs5[4:1]/2b,,7-3b[12:1],7,{64}7b,Cf,
E
&inote_6=(185){1},,,
{4}3h[4:7],A6,,E6,,E5,,A4,
6h[4:7],A2,,E3,,E4,,A40,
2h[4:7],A8,,E8,,E7,,A6,
7h[4:5],A8,,E1,,E2,2-5[8:1]/6-1[8:1],2b/6b,
{8}5x>1[6:1],,6,,4<8[6:1],,3,,
2-4[8:1],1-5-7-3[8:3],2,1,,4,4h[4:1],,
{8}1<5[6:1],,2,,8>4[6:1],,7,,
6-8[8:1],5-1-3-7[8:3],6,5,,,8,8,
{8}5-1-3[4:1],,6,,4-8-6[4:1],,3,,
1^4[8:1],,1/5-1-4-8b[8:3],,,,,,
{4}2-8-4[4:1],4-2-6-8[8:3],,,
{8}1hb[8:5]/5bh[8:5],,,,,,B3/B7/E3/E7/Cf,,
4h[4:1]/6h[4:1],,,2h[4:1]/5h[4:1],,,8b>7[2:1]/4h[4:3],,
,,,,,,2/8,,
5h[8:1]/3h[4:1],,,7h[4:1]/4h[4:1],,,1b<2b[2:1]/5h[4:2],,
,,,,1-5[8:1],,1b,,
{8}4/6,7,3/5,1,{16}5h[4:1]/6,,,8,8,,4,,
{8}5/3,2,6/4,8,{16}4h[4:1]/3,,,1,1,,5,,
{8}8bx/3,2/7b,1/6b,8-3[8:1]/5bh[4:1],,8,1bv6^8-5[2:1]*v4^2-5[2:1],,
{4},,,,
