&title=melodiniq
&artist=onoken a.k.a. owl*tree
&first=0
&des=Into the abyss of hope and despair
&clock_count=4
&des_6=Into the abyss of hope and despair
&lv_6=16
&inote_5=
&inote_6=(193)
{1}
,
{2}
6h[2:1],5h[2:1],4h[2:1],3h[2:1],7h[2:1],5h[2:1],4h[2:1],2h[2:1],
{12}
6,5,6,5,7h[6:1],,5,6,5,6,4h[6:1],,6,5,6,5,7h[6:1],,5,6,4,5,3,4,
{2}
2h[16:15],
{32}
7h[16:15],,,,,,,,,,,,,,,3,4h[16:15],,,,,,,,,,,,,,,6,5h[16:7],,,,,,,,,,,,,,,,
{64}
4b/5b,D4/D6`E4`E6,3b/6b,D3/D7`E3`E7,2b/7b,D2/D8`E2`E8,1b>8V25[32:237]/8b<1V74[32:237],D1f/E1,
{8}
,,,,,,,
{1}
,,,,,,,
{8}
6,6,6,
{16}
6,5,7,,2,4,3,,45,,,,7,6,15,,2,3,48,,57,,46,,3h[4:1]/5,,,,
6,4,6,4,7,5,7,5,8,4,7,3,6,2,5,1,4,2,5,3,6,4,7,5,
{32}
8,D1/E1,A1/B1,D2/E2,A2/B2,D3/E3,A3/B3,D4/E4,A4/B4,D5/E5,A5/B5,D6/E6,
{16}
6,7,8,1,3,4,5,6,2,1,8,7,56,4,3,2,18,7,6,5,4,3,2,1,48,5,6,7,8,1,2,3,
{32}
5b,4,5,4,5,4,5,4,
{24}
5,4,5,4,5,4,
{12}
5,4,5,4,5,4,
{8}
5,4,
{12}
5,4,5,
{16}
4,5,4,5,
{24}
4,5,4,5,4,5,
{16}
4,3,2,1,7,6,5,4,1,2,3,4,1,8,7,6,
3,5,4,5,2,5,4,5,1,6,8,7,1,2,3,4,
7,5,6,5,8,5,6,5,1,4,1,3,8,2,8,1,
{20}
7h[384:1],6,5,4,3,
{24}
8h[384:1],7,6,5,4,3,
{28}
1h[384:1],8,7,6,5,4,3,
{32}
2h[384:1],1,8,7,6,5,4,3,
{16}
7,8,7,1,6,4,5,3,4,5,6,7,4,3,2,1,
7,6,8,1,7,6,8,1,
{24}
5h[8:1],,,1,2,3,45,,,8,7,6,
{16}
45,3,2,1,78,6,5,4,3/E7,2/E6,1/E5,8/E4,37,2,1,8,
{24}
7b/6,5,4,3,2,1,4b/8,7,6,5,4,3,
{32}
1/5b,48,37,26,
{40}
15,8,7,6,5,
{4}
4-2[8:1]/8-4[8:1],4/8b<5[8:1],1-6[8:1]/8-4[8:1],1-3[8:1]/8,1-6[8:1]/5-8[8:1],
1/5>2[8:1],5-8[8:1]/7,
{24}
5/1-6b[8:1],2,3,4,,,
{8}
1/5-1[8:1],4,
{4}
3b<6[8:1]/5,3-1[8:1]/8-4[8:1],3-6[8:1]/8-6[8:1],3V51[8:3]/8,3/8-4[8:1],8,
{24}
2,3,4,6,7,8,
{4}
1b-5b[8:1]/2,
{8}
1/4>1[8:1],,4,7<4[8:1],,7,3>8[8:1],,3,7V51[8:3],,1,2,3,4-8[8:1],,
4-2[8:1],6,4,7-5[8:1],1,7-3[8:1],1<6[8:1]*-6[8:1],7,
{4}
1>4[8:1]*-4[8:1],1,
{32}
8,7,6,5,4,3,2,1,
{4}
4/8<1[16:23]*<1>8b[8:23],
{1}
A4h[8:31]/A5h[1:4]/D5h[16:63]/E5f,,,,
{8}
6,7,8,1,2,3,45,4h[4:1]/5,,
{16}
6,5,6,,3,4,
{8}
2h[8:1],A4h[8:1]/E4h[8:1],D6h[8:1]/E6h[8:1],7h[2:1],,1,2,3h[2:1],,6,7,8h[1:1],
{32}
E5,E6,E7,E8,
{24}
E1,E2,E3,
{16}
B4,B5,B6,B7,
{12}
B8,B1,B2,
{8}
B3h[4:1],,7,6,5,4,35,4,3,2h[8:3],,,5,6,3,4,5-1[8:1]/7,6,4-8[8:1]/5,3,4/7<4[8:1],6,2-6[8:1]/7,3,12,8>5[2:1],,78,E7,E6h[2:1],,,,
{16}
4,3,
{8}
2-6[8:1],1-7[8:1],2-4[8:1],1,2-8[8:1],7<4-8[8:3],2,7,,,
{16}
1,2,
{8}
3/5-1[8:1],6,5/7-3[8:1],8,1-5[8:1]/7,2-4[8:1],1<6[8:1],2-6V41[4:3],1,2,,8,8h[8:3],,,,,1-5[8:1]/8-4[8:1],,18,,
{16}
3,4,3,4,3h[8:1],,6,5,6,5,6h[8:1],,
{24}
4b,5,4,5,,,
{16}
2,4,3,5,4h[8:1],,7,5,6,4,5h[8:1],,
{24}
1b,2,3,48,,,
{16}
75,6,75,6,75,,24,3,24,3,24,,
{24}
7b/8b,16,25,34,,,
{16}
34,5,67,5,34,,23,1,78,1,23,,
{24}
4b,35,26,1/7h[16:17],,,
{8}
6,6,5,5,4,3,2,1,
{16}
8,7,8,7,
{24}
1,7,1,7,1,7,
{32}
2,3,4,5,8,7,6,5,
{48}
4b,3,2,1,8,7,6,5,4,3,2,1,
{1}
A3h[4:3]/A4h[2:1]/A7h[8:3]/A8h[8:1]/D4h[8:5]/D8h[4:1]/E4h[8:7]/E8h[8:7],
(196)
{4}
A1/A2/A5/A6/B1/B2/B5/B6/Cf,,27,
{12}
1,8,1,8h[4:1],,,2,4,3,
{16}
5,4,6,5,7h[4:1],,,,8,1,2,3,45,6,7,8,12,,4/6h[4:1],,,,3,2,1h[4:1],,5,4,3h[4:1],,1,8,7,68,57,46,3b/5h[4:1],,,,
{6}
1h[2:1],
{96}
,,,,,,,6,5,,,,,,,5,6,,,,,,,6,5,,,,,,,5,
{6}
6h[2:1],
{96}
,,,,,,,2,3,,,,,,,3,2,,,,,,,2,3,,,,,,,3,
{6}
2h[12:5],
{96}
,,,,,,,7,6,,,,,,,6,7,,,,,,,7,6,,,,,,6,5,
{96}
47,,,,,,5,6,47,,,,,,5,4,36,,,,,,4,5,36,,,,,,4,3,25,,,,,,3,4,
{12}
25,
{16}
1,8,1,,27,,6,5,7,5,6h[4:1],,5,,4,3,27,6,5,4,23,1,8,7,68,57,46,35,
{24}
24,3,2,1,8,7,
{4}
2h[2:1]/E6h[1:1]/E7h[1:1]/B6f,,,
{24}
5,4,3,2,1,8,7h[4:1],,,,,,6,5,4,3,2,1,
{96}
48,3,,,,,,,37,4,,,,,,,46,3,,,,,,,
{4}
3/5h[4:1]`4,
{16}
6,7,8,1,5,6,7,8,12,3,4,5,3,4,5,6,
{20}
78,1,2,3,4,
{24}
6,7,8,1,2,3,
{28}
5,6,7,8,1,2,3,
{32}
5,6,7,8,1,2,3,4,
{12}
5/7h[4:1],,,5b,57,57,5h[4:1]/7b,,,3b,35,24,1b/3,28,17,2b/6,35,46,3b/7b,3b/7b,4b/8b,4b/8b,1b/5b,1b/5b,
{1}
2bh[1:1]/6bh[2:1],
{24}
6b,15,48,37,26,15,
{32}
48,7,6,5,4,3,2,1,
{40}
78,6,5,4,3,2,1,8,7,6,
{4}
45,
(206)
{32}
4b,5,4,5,4,5,4,5,
{24}
3,6,3,6,3,6,
{16}
2,7,2,7,
{12}
1,8,1,8,1,8,
{16}
2,7,2,7,
{24}
3,6,3,6,3,6,
{32}
4,5,4,5,4,5,4,5,
{16}
4,3,2,1,78,6,5,4,1,2,3,4,56,7,8,1,
{64}
3,4$,,,8,,,,2,,,,8,,,,4,3$,,,7,,,,2,,,,7,,,,
3,4$,,,6,,,,2,,,,6,,,,4,3$,,,5,,,,2,,,,5,,,,
(209)
{32}
3b,4,3,4,3,4,3,4,
{24}
2,5,2,5,2,5,
{16}
1,6,1,6,
{12}
8,7,8,6,5,6,
{16}
4,7,4,7,
{24}
3,8,3,8,3,8,
{32}
2,1,2,1,2,1,2,1,
{24}
2b,3,4,5,6,7,5b/8,1,2,3,4,5,8b,7,6,5,4,3,2/6b,1,8,7,6,5,
{32}
2,3,5,4,2,3,5,4,2,1,5,6,2,1,5,6,
{64}
1b,8$,
{32}
2,3,4,5,6,7,8,
{64}
5b,6$,
{32}
4,3,2,1,8,7,6,
(212)
{32}
5-7[8:1]/3b,4,3,4,3,4,3,4,
{24}
35,4,3,4,3,4,
{16}
3/8-6[8:1],4,38,4,
{12}
38,4,3,4/5-7[8:1],3,4,
{16}
3/5-1[8:1],4,3,4,
{24}
3/5<8[8:1],4,3,4,3,4,
{32}
35,4,3,4,3,4,3,4,
(215)
{16}
23,1,23,1,
{64}
2,3,,,1,,,,3,2,,,1,,,,
{16}
2,18,2,18,
{64}
2,,,,1,8,,,2,,,,8,1,,,
3,4,,,78,,,,4,3,,,8,7,,,45,,,,6,7,,,5,4,,,67,,,,
4b,D4/E4,3,D3`E3,2,D2/E2,1,D1`E1,8,D8/E8,7,D7`E7,6,D6/E6,5,D5`E5,
{4}
A4h[4:1],
(218)
{32}
5b,3,5,3,5,3,5,3,
{24}
2,6,2,6,2,6,
{16}
1,7,1,7,
{12}
8,8,8,1,1,1,
{16}
2,8,3,7,
{24}
4,6,4,6,4,6,
{32}
4,6,4,6,4,6,4,6,
(221)
{24}
4,3,2,1,8,7,6/8b,57,46,5,4,3,2,1,8,7,6,5,2b/4,1,8,7,6,5,
{64}
4/8b,D8/E8/B8,7`B4,D7/E7/B7,6`C,D6/E6/B6,5`B8,D5/E5/B5,4`A8,,,,,,,,1b/5,D2/E2/B1,2`B5,D3/E3/B2,3`C,D4/E4/B3,4`B1,D5/E5/B4,5`A1,,,,,,,,
4b/8b,D4/E4h[64:1],37,D3`E3h[64:1],26,D2/E2h[64:1],15,D1`E1h[64:1],8,D8/E8h[64:1],7,D7`E7h[64:1],6,D6/E6h[64:1],5,D5`E5fh[64:1],
{4}
4b,
(224)
{24}
8b,7,6,5,4,3,2,1,8,
{48}
2b/7,D3,3,D4/E4,4,D5,5,D6/E6,6,D7,7,D8/E8,8,D1,1,D2/E2,2,D3,
{24}
3/6b,7,8,1,2,3,4,5,6,
{48}
2b/7,D2,1,D1/E1,8,D8,7,D7/E7,6,D6,5,D5/E5,4,D4,3,D3/E3,2,D2,
{32}
1b,28,37,46,
{64}
5,D5h[64:1]/D6h[64:1],46,D4h[64:1]/D7h[64:1],37,D3h[64:1]/D8h[64:1],28,D2h[64:1]/D1h[64:1],
{4}
1bw5b[8:1],
(227)
{8}
1b/Cfh[128:1],,78,18,12,23,34,45,
{32}
1b,8,7,6,45,,,,8b,7,6,5,34,,,,7b,6,5,4,32,,,,6b,5,4,3,1h[8:1]/2,,,,
(230)
{32}
3b$,2/4b$,3/5b$,4/6b$,5/7b$,6/8b$,1b$,2b$,
{24}
1b/3,2b/4,3b/5,4b/6,5b/7,6b/8,
{16}
7b$,1b$,3b$,5b$,
{12}
8b,2b,4b,
{24}
7b$,8,1,2,3,4,5,6,7,3b$/8,2,1,8,7,6,5,4,3,
{32}
2/4b$,D5`E5,5,D6`E6,6,D7`E7,7,D8`E8,
{1}
8bh[1:1],
{24}
1,2,3,4,5,6,A3/7`B3,A4/B4/8,A5/B5,A6/B6,A7/B7,A8/B8,A1/B1/4,A2/B2/5,6,7,8,1,2/D6`A5,3/A6/D7,A7/D8,A8/D1,A1/D2,A2/D3,
(236)
{4}
4bh[128:63]/3-8[8:1],3$,
{384}4h[128:15],5,6$,
{128},,,,,,,
{16}
,
{384}4h[128:15],5,,
{128},,,,,,,
{16}
6$,
{384}4h[128:15],5,,
{128},,,,,,,
{16}
,
{384}4h[128:15],5,,
{128},,,,,,,
{16}
6$,
{384}4h[128:15],5,,
{128},,,,,,,
{16}
,
{384}4h[128:15],5,,
{128},,,,,,,
{16}
,
{384}4h[128:15],5,6$,
{128},,,,,,,
{16}
,
{384}4h[128:15],5,,
{128},,,,,,,
{16}
6$,
{384}4h[128:15],5,,
{128},,,,,,,
{16}
,
{384}4h[128:15],5,,
{128},,,,,,,
{16}
,
{384}4h[128:15],5,6$,
{128},,,,,,,
{16}
,
{384}4h[128:31],5,6$,
{128},,,,,,,
{16}
,,,
{384}4h[128:15],3,7$,
{128},,,,,,,
{16}
,
{384}4h[128:15],3,,
{128},,,,,,,
{16}
7$,
{384}4h[128:15],3,,
{128},,,,,,,
{16}
,
{384}4h[128:15],3,,
{128},,,,,,,
{16}
,
{384}4h[128:15],3,7$,
{128},,,,,,,
{16}
,
{384}4h[128:15],3,6$,
{128},,,,,,,
{16}
,
{64}
3bh[32:7]/5bh[32:7],,,,,,,,,,,,,,,26,1bh[32:3]/7bh[32:7],,,,,,,2,3bh[32:3],,,,,,,48,1bh[32:3]/5bh[32:3],,,,,,,48,3bh[32:3]/7bh[32:3],,,,,,,26,
{96}
1bh[32:3]/5bh[32:3],,,,,,,,,,26,37,4bh[32:3]/8bh[32:3],,,,,,,,,,37,26,
{8}
1b/5bh[128:79],6-1b[8:1],,6$,,
{384}5h[128:15],4,2$,
{128},,,,,,,
{16}
,
{384}5h[128:31],4,2$,
{128},,,,,,,
{16}
,,,
{384}5h[128:15],6,,
{128},,,,,,,
{16}
1$,
{384}5h[128:15],6,,
{128},,,,,,,
{16}
,
{384}5h[128:15],6,,
{128},,,,,,,
{16}
3$,
{384}5h[128:15],6,,
{128},,,,,,,
{16}
,
{384}7h[128:15],6,8$,
{128},,,,,,,
{16}
,
{384}7h[128:15],6,1$,
{128},,,,,,,
{16}
,
{384}7h[128:15],6,2$,
{128},,,,,,,
{16}
,
{384}7h[128:15],6,3$,
{128},,,,,,,
{16}
,
{384}7h[128:15],6,4$,
{128},,,,,,,
{16}
,
{384}7h[128:31],6,C,
{128},,,,,,,
{16}
,,,
{8}
1b-3[16:1],1b-7[16:1],1b-4[16:1],1b-6[16:1],1bw5[4:3],1b,
{2}
,
{32}
E1`E2,B2/B8,B3/B7,E4/E7,
{8}
,,,
{8}
2,2,2,2,
{48}
23,D3,34,D4,45,D5,
{8}
56,7,
{16}
7,8,6,1,6,2,6,3,6,4,
{48}
56,D6,45,D5,34,D4,
{8}
23,1,1,78,78,68,15,
{48}
15,D2/D6h[48:1],26,D3/D7h[48:1],37,D4/D8h[48:1],
{8}
48,
{16}
1,5,1,5,
{8}
48,38,28,18,
{64}
8,D1f/D8,17,D2f/D7,26,D3f/D6,35,D4f/D5,
{8}
4,46,35,,18,2b-5[8:1]/7b,,2/6-1[8:1],6,6/7-4[8:1],7,3-8[8:1]/7,3,2>5[8:3]/3,2,5b/A2/E2,6/A3/B3,7/A4/E5,8h[8:3]/A5h[8:1]/D6,,,
{16}
4,8,3,8,2,7,1,7,8,6,1,5,2,4,3,3,8,2,7,3,6,4,5,5,4,3,2,1,
(240)
{24}
1w5[8:1]/8w4b[8:1],27,36,45,,,
{16}
1b/8,A3/A6/B2/B3/B6/B7/Cf,,,1,8,1,8,2,7,2,7,5,6,4,6,3,7,2,7,1,8,7,6,
{32}
2,D2/E2,1,D1/E1,8,D8/E8,7,D7/E7,
{24}
4,3,2,1,8,7,26,5,4,3,2,1,48,7,6,5,4,3,26,15,8,7,6,5,
{32}
48,1,2,3,4,5,6,7,58,16,27,38,1,2,3,4,5,6,7,8,14,3,2,1,8,7,6,58,47,36,25,14,
{12}
38,1,2,47,5,6,28,1,3,57,8,6,
{16}
7,5,6,4,5,3,4,2,
{32}
1,8,7,6,2b,,,,8,7,6,5,3b,,,,
{24}
7,6,5,4,3,2,8,7,6,5,4,3,7,6,5,3,2,1,6,5,4,2,1,8,
{32}
6,5,4,3,
{24}
2,1,8,
{32}
7,6,5,4,
{24}
3,2,1,
{32}
28,37,46,5,
{24}
6,7,8,
{32}
1,2,3,4,
{24}
5,6,7,
{8}
8-2[8:1],56,8-4[8:1],56,8>3[8:1],67,8,67,46,56,67,68,16,25,34,23,
{32}
1b/3,8,27,6,1b/5,,,,,,,,1/5b,2,36,4,5/7b,,,,,,,,
{96}
5b/8,,,4,7,,3,,6,2,,,
{8}
1b/5,,
{96}
4b/1,,,5,2,,6,,3,7,,,
{8}
8b/4,,
{64}
1b/5,D5,8/4,D4h[64:1],7/3,D3,6/2,D2h[64:1],
1,D1,8,D8h[64:1],7,D7,6,D6h[64:1],
{4}
1/5bh[8:9],
{8}
1,2,3,4,6,7,8,1,
{12}
2bh[12:11]/5,4,3,1,8,7,6,5,4,3,1,8,
{16}
3/7bh[16:15],4,5,6,8,1,2,3,4,5,6,8,1,2,3,4,
{24}
8b,1,2,3,4,5,1,8,7,6,5,4,
{32}
1,2,3,4,5,6,7,8,14,25,36,47,58,6,7,8,
{16}
1b-5[16:11],,,,78,,2,4,3,,6,5,7,,1,,
8b-4[16:11]*-4[16:11],,,,21,,7,5,6,,3,4,2,,8,,
{24}
1b,2,3,4,5,6,5b/7,6b/8,1/7b,2/8b,1b/3,4/2b,
3b,4,5,6,7,8,1/7b,2/8b,1b/3,2b/4,3b/5,4b/6,
5b,6,7,8,1,2,1b/3,2b/4,3b/5,4b/6,5b/7,6b/8,
7b,8,1,2,3,4,3b/5,4b/6,5b/7,6b/8,1/7b,2/8b,
{8}
1b,,35`D3/D4/D5/D6,35`D3/D4/D5/D6,46`D4/D5/D6/D7,46`D4/D5/D6/D7,57`D5/D6/D7/D8,57`D5/D6/D7/D8,
{12}
4/D4/D5,6,8,4/D4/D5,2,8,3/D3/D4,1,5,7/D7/D8,1,5,
{16}
2/D2,4`D5,3/D3,5`D6,4/D4,6`D7,5/D5,7`D8,
{48}
4b,D4/E4/B4,3,D3/E3/B3,2,D2/E2/B2,1,D1/E1/B1,8,D8/E8/B8,7,D7/E7/B7,
{64}
5b,D5fh[64:1]`E5,4,D4fh[64:1]/E4,3,D3fh[64:1]/E3,2,D2fh[64:1]/E2,1,D1fh[64:1]/E1,8,D8fh[64:1]/E8,7,D7fh[64:1]/E7,6,D6fh[64:1]/E6,
{32}
2h[64:1]/D3,3h[64:1],5h[64:1]/D5,4h[64:1],2h[64:1]/D3,3h[64:1],5h[64:1]/D5,4h[64:1],
{64}
1,D2,2h[64:1],,6,D6,5h[64:1],,1,D2,2h[64:1],,6,D6,5h[64:1],,
{48}
1,2,3,4,5,6,7,8,1,2,3,4,5/8b,7b,6b,5b,4b,3b,2b,1b,
{96}
8b,E1f/E8f`D1`D8,1b/7b,E2f/E7f`D2`D7,2b/6b,E3f/E6f`D3`D6,3b/5b,E4f/E5f`D4`D5,
{384}
4b<1-5<4[4:23]*>7-3>4[4:23]*<4b[4:23]*>4b[4:23],4?V68V24[4:23],4?V28V64[4:23],
{128},,,,,,,
{16}
,,,
{4}
,,,
{1}
,,,,,
{2}
,
{20}
6,,,4,,,5,,,3,,,6,,,
{6}
4,5,3,5,4,6,
{4}
5,4,3h[2:1],
{32}
,,,,,,4,5,
{4}
6b-3[24000#4:1200],,,,,,,,,,,,
