&title=推推推推推推推推金金金金金金金金
&artist=Kikuo/神楽Mea
&first=1.52
&des=Tsuuisa
&des_5=Tsuuisa
&lv_5=14
&inote_5=(200){8}3,3,3,5,5,5,4,4,
4,5,5,5,3,3,3,7,
7,7,6,2,8/3h[8:1],7h[8:1],1h[8:1],6h[8:1],
,2,7,8,8,3,1h[8:1],2,
{4}3h[8:1],{8}7,1h[8:1],6,8,7h[8:1],1h[8:1],
{4}3h[8:1],{8}7,1h[8:1],6,2,{4}3h[8:1],
{8}1/2h[8:1],1,8/2h[8:1],8,7/2h[8:1],7,6/2h[8:1],6,
3b/5h[8:1],3,2b/5h[8:1],2,1b/5h[8:1],1,8b/5h[8:1],8,
{4}1h[4:1],{8}4,4,{4}5h[4:1],{8}3,3,
3,7,7,7,3,3,{4}3/5h[4:1],
6h[4:1],{8}4,4,{4}5h[4:1],{8}3,3,
3,7,7,7,5,5,{4}5/2h[4:1],
6h[4:1],{8}4,4,{4}5h[4:1],{8}3,3,
3,7,7,7,6,6,{4}6,
2h[4:1],5h[4:1],{8}6h[8:1],7h[8:1],{4}8h[8:1],
{8}1h,2h,{16}8h,1h,7h,2h,,,,,{4}1>6[2:1],
{8}8h[8:3],,,,,2,{4}1h[4:1]/8<3[2:1],
,,,1-5[4:1],
{2}1/7h[2:1],{4}3,8-4[4:1],
{2}2h[2:1],6,
{4}3h[8:1],{16}4,5,3,4,{4}6h[4:1],1-6[8:1],
1/7-4[8:1],7/5-2[8:1],5/3v8[8:1],3/4h[8:1],
6/1h[4:1],{8}7h[4:1],2,8h[4:1],6,5,5,
{16}2,4,{8}3,{4}1h[4:1],2-5[8:1],2-8-5-3-1[8:7],
2,6,6,6-4>2v1-7[8:7],
6,6,6,6,
{2}6h[4:1]/1h[16:5],3h[4:1]/8h[16:5],
{8}7-5[8:1],2-4[8:1],7,2,,,{4}8b/1b,
8-3[8:1],8/7-4[8:1],7/8-3[8:1],8/7-4[8:1],
7/8-3[8:1],8/7-4[8:1],7/8-3[8:1],8/7,
{8}2-5b[8:1],2b,1-4b[8:1],1b,2-5b[8:1],2b,1-4b[8:1],1b,
2-5b[8:1],2b,1-4b[8:1],1b,2-5b[8:1],2b,{4}8b,
{8}7-4[8:1],7,8-3[8:1],8,7-4[8:1],7,,,{4}1-4b[8:1],
1b/2-5b[8:1],2b/1-4b[8:1],1b/7-4[8:1],
7/8-3[8:1],8/1-4b[8:1],1b/2-5b[8:1],2b/7-4[8:1],
7/1-4b[8:1],{8}1b,8b,{16}3,5,{8}4,8,8,
5b/7bh[4:1],6,{16}4,6,{8}5,4/2h[4:1],3,{16}6,8,{8}7,
7/1h[4:1],8,{16}4,2,{8}3,4/2h[4:1],3,{16}5,4,{8}8,
7/1h[4:1],8,{16}6,4,{8}6,5b/7bh[4:1],6,{16}2,8,{8}1,
3/1h[4:1],2,{16}4,3,{8}5,4/2h[4:1],3,,,4b/1b-6[8:1],
2,6b/1b-4[8:1],8,{4}1b,{8}7-3b[8:1],8b,
{4}7b/1-5b[8:1],1b/8p4b[8:1],{2}8b,
{8}5b/8b-3[8:1],7,3b/8b-5[8:1],1,{4}8b,{8}2-6b[8:1],1b,
{4}2b/8-4b[8:1],8b/1q5b[8:1],{2}1b,
{8}1b/5qq5b[4:1],3,1b/5pp5b[4:1],7,{4}1b,{8}8v3b[8:1],7,
{4}8/1v4b[8:1],6/1-7b[8:1],{2}1/5,
{8}8b/4v1>2-4[4:1],2,8b/4pp6>4[4:1],6,{4}8b,{8}1v6b[8:1],2,
{4}1/8v5b[8:1],3/8-2b[8:1],8/4,7b/3b,
{2}5h[4:1]/6h[4:1],2h[4:1]/3h[4:1],
8h[4:1]/7h[4:1],6h[4:1]/4h[4:1],
{4}5h[8:1]/3h[8:1],4h[8:1]/6h[8:1],5h[8:1]/2h[8:1],4h[8:1]/7h[8:1],
{8}1h[16:1]/5h[16:1],{16}2,3,4,5,6,7,{32}8x,1x,2x,3x,4x,5x,6x,7x,8x,1x,2x,3x,4x,5x,6x,7x,
8x,1x,B2,B3,B4,B5,B6,B7,B8,B1,B2,B3,B4,B5,B6,B7,B8,B1,B2,B3,B4,B5,B6,B7,B8,B1,B2,B3,B4,B5,B6,B7,
B8,B1,B2,B3,B4,B5,B6,B7,{4}6xh[2:1]/B8,{16},,,,,3,5,4,
{8}6h[2:1],3,{4}2,{8}1h[2:1],7,{4}8,
,2<7-3<6b[2:13]/5-8>1-4<5<6[2:13],{1},,,,,,,,{2},5h[8:1]/2h[8:1],
6h[8:1]/4h[8:1],
{4}3h[8:1]/7h[8:1],2h[8:1]/6h[8:1],8h[8:1]/6h[8:1],3h[8:1]/4h[8:1],
{2}1-6[4:1],7-4[4:1],
5-1[4:1],{4}7,2b/3b,
{8}8-3[8:1],7-4[8:1],8,7,8-3[8:1],7-4[8:1],8,7,
8-3[8:1],7-4[8:1],8,7,8-3[8:1],7-4[8:1],8,7,
{4}2-5b[8:1],2/8-3b[8:1],8/6-1b[8:1],6/4-7b[8:1],
4/2-5b[8:1],2/8-3b[8:1],8/6-1b[8:1],6,
{8}7-4[8:1],6,7/8-3[8:1],1,8/7-4[8:1],6,{4}7,
{8}2-5b[8:1],2b,1-4b[8:1],1b,2-5b[8:1],2b,{4}7-4[8:1],
7/8-3[8:1],8/1-4b[8:1],1b/2-5b[8:1],2b/7-4[8:1],
7/1-4b[8:1],{8}1b,8b,{16}5,6,{8}7,4,6,
5b/7bh[4:1],6,{16}4,6,{8}5,4/2h[4:1],3,{16}6,8,{8}7,
7/1h[4:1],8,{16}4,2,{8}3,4/2h[4:1],3,{16}5,4,{8}8,
7/1h[4:1],8,{16}6,4,{8}6,5b/7bh[4:1],6,{16}2,8,{8}1,
3/1h[4:1],2,{16}4,3,{8}5,4/2h[4:1],3,,,4b/1b-6[8:1],
2,6b/1b-4[8:1],8,{4}1b,{8}7-3b[8:1],8b,
{4}7b/1-5b[8:1],1b/8p4b[8:1],{2}8b,
{8}5b/8b-3[8:1],7,3b/8b-5[8:1],1,{4}8b,{8}2-6b[8:1],1b,
{4}2b/8-4b[8:1],8b/1q5b[8:1],{2}1b,
{8}1b/5qq5b[4:1],3,1b/5pp5b[4:1],7,{4}1b,{8}8v3b[8:1],7,
{4}8/1v4b[8:1],6/1-7b[8:1],{2}1/5,
{8}8b/4v1>2-4[4:1],2,8b/4pp6>4[4:1],6,{4}8b,{8}1v6b[8:1],2,
{4}1/8v5b[8:1],3/8-2b[8:1],8/4,4/5,
7-4b[8:1],7/2-4b[8:1],5pp4[4:1]/2<8-4[4:1],2/5,
{8},2,3/1,5,{4}6/4,8/7,
2-5b[8:1],2/7-5b[8:1],4v2>3-5[4:1]/7>1-5[4:1],4/7,
{8},7,6/8,4,{4}3/5,1/2,
7-4b[8:1],7/2-4b[8:1],5v7<6-4[4:1]/2-8-4[4:1],5/2,
{8},2,3/1,5,{4}6/4,8/7,
2b-5b[8:1],2/7b-5b[8:1],4bv2>3-5[4:1]/7>1-5[4:1],4/7,
{8},7,6/8,4,{4}3/5,1/2,
7-3[8:1],7/2-4[8:1],2<1v4[4:1]/5v6-4[4:1],5/2,
{8},2,3/1,5,{4}6/4,8/7,
2-6[8:1],2/7-3[8:1],7<5[16:3]/4v5[16:3],4/7,
{8}8,4,3/5,1,{4}8/2,6/7,
7-3[8:1],7/2-6[8:1],2-4[8:1]/5>4[8:1],2/E6,
{8}7,2,3/1,5,{4}6/4,8/7,
1bw5b[8:1],1b,{8}1b,,,1b-6b[8:1],
,1b-4b[8:1],,1b,{2}5bh[4:1],
{4}1h[4:1],{8}4,4,{4}5h[4:1],{8}3,3,
3,7,7,7,3,3,{4}3/5h[4:1],
6h[4:1],{8}4,4,{4}5h[4:1],{8}3,3,
3,7,7,7,5,5,{4}5/2h[4:1],
6h[4:1],{8}4,4,{4}5h[4:1],{8}3,3,
3,7,7,7,6,6,{4}6,
8/6,2/4,{8}6,8,{4}3,
{8}2,{16}1,7,1,6,1-6[8:1],6,1,6-1b[8:1],{8}1b,
E
