&title=レンジで好吃☆電子調理器使用中華料理四千年歴史瞬間調理完了武闘的料理長☆
&artist=ななひら
&first=0
&des=KyuuBAi
&clock_count=4
&lv_5=14
&inote_5=(190)
{1},
{4},4h[8:19]/5<3[8:17],
{1},,
{2},
{4},
{16},,,5h[8:19]/6<3qq7[1:3],
{1},,,
{32}
{16},,4h[16:12],
{4},,
{16},,,6h[16:13],
{4},,,
{16}8h[16:13],
{4},,
{16},,,,2h[16:13],
{4},,,
{16}4h[4:6],,,,,,1,,,,,,,,8,,,,,,,,,,7,
{4},,
{8},
{16}6x,4x,5x,3x,4x,2x,5x,3x,6x,4x,7x,5x,
{32}6x,7x,8x,1x,2x,3x,4x,5x,
{16}6x/8x,,,1x/3x,
{8},36,4-1b[8:1]/5-8b[8:1],,
{32}4b/5b,E5f,C,E1,,,,,
{8}27,,54,6,57,6,54,3,24,3,45,36,45,,7,6,
{4}2-6[8:1]/5,24,2-6[8:1]/5,2/8qq5[4:3],,,
{8},1b,1b,,
{8}27,,54,3,12,3,45,6,78,
{16}6x,5x,6x,,
{8}4x/7x,4x/7x,,36,52,
{16}1,4,1,4,2,5,2,5,3,6,3,6,4,7,4,7,5xb,,,2xb/4xb,,,1b/8b,,2bq3[4:1]/7bp6[4:1],,,,
{4},,4,4,4,4,4,4,4,4/6q2[2:1],4,4,4,4/3>7[2:1],4,3,2,15,5,5,5,5/1>4[2:1],5,6,7,8-6[8:1]*-3[8:1],,1-3[8:1]*-6[8:1],,1s5[2:1]b/8z4[2:1],,,,
{8}2-5[8:1],2,1<6[8:1],1,3-8[8:1],3,4-7[8:1],4,1,2,3-8[8:1],3<6[8:1],,,1,2,7V53[8:1]/3,,2,1-5[8:1],,1pp4[4:3]*qq6[4:3],,1,
{4},,,,
{8}7-4[8:1],7,8-3[8:1],8,6<1[8:1],6,2,3,4-8[8:1],4,7-4[8:1],7,1,1,2,3/7,8,1<6[8:1],2,3,4>1[8:1],5,6,7qq4[8:5],,,,,,1b,1b,,
{4}2-5[8:1],7qq1[8:3],
{8}6,5,4,3,2b,2b,1b/3b,4b/8b,5b/7b,,,,
{4}6-3[8:1],1pp4[8:3],
{8}5,6,7,8,E4f/E8,E2/E6f,E4/E8f,E2f/E6,E4/Cf/E8,,
{8}1pp4[2:1]/8qq5[2:1],,1b/8b,,,,,,1pp4[2:1]/8qq5[2:1],,1b/8b,,,,,,1-4[8:1]/8-5[8:1],,1b/8b,,,81,3b/6b,,,18,4b/5b,1b/8b,4b/5b,8b/1b,5b-8[8:1]/4b-1[8:1],,
{1},,,,
{4},
{8}5,4,3,2,1,8,7,6,
{1}5>2[4:1],5>1[4:1]*>1[4:1],5>8b[4:1],
{8}4,5,6,7,8,1,2,3,
{1}4<7[4:1],4<8[4:1]*<8[4:1],4w8b[4:1],
{1}2xbh[8:11]/6xbh[8:11],
{2},
{8},3xb/7xb,,,4xbh[8:9]/8xbh[8:9],
{2},,
{8},8xz4[4:1]/4,,
{4},,
{16}2,4,,4,2,,34,,
{4}25,,
{16}7,5,,5,7,,56,,
{4}47,,
{16}3,5,,5,3,,2x/4x,,8,6,,6,8,,1x/7x,,
{4}Chf[2:1],
{8},
{32},B8/B1,B7/B2,B6/B3,
{4}B5/B4,E7/B6/C/B3/E3,
{8}2-6[8:1],2,1-5[8:1],1,8-4[8:1],8,7-3[8:1],7,2>6[8:1],2,8p4[8:1],8,1q6[8:1],1,7,7,8,8,54,1,35,8,64,1,
{16}4b/7b,,,2b/5b,,,1b/8b,,
{4}2b/7b,B7/C/B2,4>8[4:1],8<4[4:1],4>8[4:1],8pp4b[1:1],
{8}4,4,5,5,6,6,7,7,
{2}8b-4[8:1],1b-5[8:1],
{8},2b/6b,2b/6b,4b/8b,8b/4b,,7v4[8:1]/3v8[8:1],,,,2b/6b,,
{8}8-4[8:1]/1,7,1-5[8:1]/8,2,7-3[8:1]/1,8,2-5[8:1]/7,1,6-3[8:1]/2,7,26,1,2,2,36,3,74,4,58,5,
{16}1b/6b,,,8b/3b,,,5b/4b,,
{4}6b/3b,B6/C/B3,
{4}8<4[4:1],4>8[4:1],8<4[4:1],4,
{8}1,2,3,4,8,7,6,5,
{32}1xb,2,3,4,5,6,7,8,1xb,2,3,4,5,6,7,8,1xb,2,3,4,5,6,7,8,1xb,2,3,4,5,6,7,8,
{16}1xb/5b,,,3b/7b,,,2b/6b,,4b>1[8:1]/8b<5[8:1],,
{8},,,
{1}Chf[1:1],
{16}7b,,,4b/5b,,,8b/1b,,
{4}3b-5[8:1]/6b-4[8:1],,
{1}2xbh[8:7]/E6f/B6/B5,
{4}7bx/E4f/B3/B4,1xbh[4:1]/E6f/B6/B5,
{8},E7/B7/B6/Cf/B2/B3/E3,,,
{2}4xbh[4:1]/5xbh[4:1],1xbh[4:1]/8xbh[4:1],
{16}2xb/7xb,,,2xb/7xb,,,
{8}3xb-6b[8:1]/6xb,
{2}3xb/6xb-1b[8:1],
{4}5h[4:1],6h[4:1],7h[4:1],8h[4:1],
{8}1,1h[8:1],2,2h[8:1],3,3h[8:1],4,4h[8:1],
{2}5b-1[8:1],4b-8[8:1],
{8},7b/1b,1b/7b,2b/6b,3b/5b,,2v5[8:1]/6v1[8:1],,,,3b/7b,,
{8}4-8[8:1],4,5-1[8:1],5,3-8[8:1],3,6-1[8:1],6,4>1[8:1],4,5,5,6,6,71,4,28,5,17,4,
{16}8b/3b,,,6b/1b,,,5b/4b,,
{4}7b/2b,E7/B6/B5/E5/B4/B3/E3,8V64[4:1],4V28[4:1],8V64[4:1],4p5-8-2-7-3-6-4[1:1],
{1},
{4},3,56,
{8}4,6,4,6,4,,1s5[8:1],,
{4},7-3[8:1],7/4-1[8:1],4/5-8b[8:1],54,
{8}1,2,7,6,3,4,6,5,
{16}3,5,4,6,5,7,4,6,3,5,2,4x,
{32}3x,2x,1x,8x,7x,6x,5x,4x,
{16}3xb/1xb,,,8xb/6xb,,,4b/5b,,
{4}2b/7b,,
{16}36,,,4,5,,5,,
{8}34,2,18,7,56,7,18,27,18,,2,3,4/7-3[8:1],,57,,7V53[8:1]/4,,7/1pp4[4:3],,
{4},,
{8},8b,8b,,
{8}27,,54,6,78,6,45,3,21,
{16}3,4,
{8}3,52,25,,87,16,
{16}2,5,2,5,3,6,3,6,4,7,4,7,5,8,5,8,6b,,,12,12,,3,,4b/5b,,,78,78,,6,,4b/5b,,,81,81,,
{8}2b/7b,3bqq2[1:3]/6bqq7[1:3],
E
