&title=カラーズぱわーにおまかせろ!
&artist=COLORS☆SLASH(结衣(CV.高田忧希)、小幸(CV.高野麻里佳)、琴叶(CV.日冈夏美))
&first=-0.146
&des=艾瑞Airy
&des_5=
&lv_5=13
&inote_5=(200){4},,,,,,,,{1}2h[4:3]/4h[4:3],
3h[4:3]/4h[4:3],
5h[4:3]/7h[4:3],
6h[4:3]/5h[4:3],
{4}8h[4:3]/4h[2:1],,,2,
1h[4:3]/5h[2:1],,,7,
6h[2:1]/3h[2:1],,,3/6,
5h[2:1]/4h[2:1],,,4/5x-8b[2:1],
4,4,4,4-1[2:1],
5,5,5,5-8[2:1]*-8[2:1],
4,4,4,4,
4>1[4:1]/6<1[4:1],,,7/3,
{2}4h[4:1]/6h[4:1],{8}2,2,4,4h[4:1],
,6h[4:1],,8h[4:1],,1,{4}1,
{8}2/4,3,5/6,7,8/1,2,4/3,3/4-8b[8:1],
{4},,{384}3x-8[8:1]*-8[8:1],5x-8[8:1],{4},{16},,,{64},,,{96},{4}1b<6[8:1],
7h[4:1],5-3[8:1],6,
8>3[8:1],2h[4:1],4-6[8:1],3,
1<6[8:1],7h[4:1],5-3[8:1],7-1[8:1],
2-6[8:1],6,{8}8,1/7,{4}7/1,
2<7[8:1],5,4-6[8:1],1,
7>2[8:1],4,5-3[8:1],8,
2<7[8:1],5,4-6[8:1],{8}1bx,3bx,
,5/7,,2/4q5b[8:3],,,,,{4}3xh[4:1],
4,{8}5,4,{4}3/6,
3h[4:1],4,{8}6,5,{4}4/7,
3h[4:1],4,{8}7,5,{4}8/4h[4:1],
2<6[16:3],{8}3,3,,,7-4[8:1],1,
{4}7,{8}2>5[8:1],8,{4}2,{8}7-4[8:1],1,
{4}7,{8}2q7[4:1],4,{4}2,8h[4:1],
5-3[8:1],7-5[8:1],{8}1,1,,4x/2x>5[8:1],
,2x/7x>2[8:1],,7x/4xq5b[8:3],,,,,{4}6xh[4:1],
5,{8}4,5,{4}3/6,
6h[4:1],5,{8}3,4,{4}2/5,
6h[4:1],5,{8}2,4,{4}1/5h[4:1],
7>3[16:3],{8}5v3[32:5],5,,,2-5[8:1],8,
{4}2,{8}7<4[8:1],1,{4}7,{8}2-5[8:1],8,
{4}2,{8}7p2[4:1],5,{4}7,1h[4:1],
4-7[8:1],3-6[8:1],{8}1,1,,5x/7x<4[8:1],
,7x/2x<7[8:1],,2x/4x-8[16:3],,1,{4}1,
5/6h[4:1],2,4/3h[4:1],2,
5/6h[4:1],{8}2,2h[4:1],,4,{4}4,
4/3h[4:1],8,5/6h[4:1],8,
4/3h[4:1],{8}8,8h[4:1],,5,{4}5,
8-4[8:1],3,{8}1-5[8:1],8,{4}7,
{8}6-2[8:1],4,{4}3,1w5[8:1],1,
4x-2[8:1],4x/8x-6[8:1]*-6[8:1],8x/1-5b[8:1],{8}5bx,8bx,
{16},,,,,,,,1x,8,1x,8,1x,8,1,8,
{4}1b<5[4:1],5>1[4:1],{8},8-4[8:1],7,6,
{4}5>1b[4:1],1<5b[4:1],{8},4-8b[8:1],3,2,
{4}1>4[8:1],{8}8,8,,3/5-8[8:1],,5/1-4[8:1],
,1/7-3[8:1],,7,,,{4}4V25[4:1]/6V85[4:1],
{2}6/4,{4}7-4[8:1],{8}7,1-5[8:1],
,1<6[8:1],,1>4[8:1],,1,,1,
{4}1<6[4:1],6>3[4:1],3>8[4:1],8<4[4:1],
4>8[4:1],8pp5b[2:1],,,4b<8[4:1],
8>4[4:1],{8},5-1[8:1],6,7,
{4}8>4b[4:1],4<8b[4:1],{8},1-5b[8:1],2,3,
{4}4>1[8:1],{8}7,7,,2/8-5[8:1],,8/4-1[8:1],
,4/7-3[8:1],,7,,,{4}8V64[16:3]*V24[16:3],
{2}8,{4}2-5[8:1],{8}2,6-4[8:1],
,3-6[8:1],,7-3[8:1],,1,{4}1,
{8}6/5,7,2/4,3,6/5,7,1/2,3/8<1[8:5]*>7[8:5],
,,,,,,,,{4}1b<6[8:1],
8h[4:1],5-2[8:1],6,
8>3[8:1],1h[4:1],4-7[8:1],3,
1<6[8:1],8h[4:1],5-2[8:1],6-1[8:1],
3-7[8:1],7,{8}1,8/2,{4}2/8,
2<7[8:1],3,4-8[8:1],1,
7>2[8:1],6,{8}5,5,7,3,
{4}4-2[8:1]/6-8[8:1],4b/6b,1-5[8:1],{8}6b,8b,
,4/2,,7/5p4b[8:3],,,,,{4}8xw4[8:1]*w4[8:1]*w4[8:1],
{384}Cf/B2/8bqq5b[1:1]*pp3b[1:1],B6,{1},{4},{16},,,{64},,,{96},{16}E3,
C,{8}E7,
E
&inote_6=
