&title=阳光女孩 阳光男孩
&artist=TG4
&first=0.01
&des=moying
&lv_5=12
&inote_5=(136){1},
{4}3h[8:7]/5h[4:3],,,{8},6h[8:7],{1}4h[8:6],
{8}34,3,{16}6,5,,{8}7,{8}7,{16}3,4,,2,,
{8}3,3,{16}7,8,,6h[16:5],{2},
{8}65,6,{16}3,4,,{8}2,{8}2,{16}6,5,,7,,
{2}6h[8:5],{8},1b,8b/1b,,
{8}34,45,{16}6,5,,{8}7,{8}7,{16}3,4,,2,,
{8}3,3,{16}7p4[4:1],8,,1,{2},
{8}65,54,{16}3,4,,{8}2,{8}2,{16}6,5,,7,,
{16}18,,3,4,,6,5,,{8}24,3,57,6,
{8}24,35,{16}6,5,,{8}7,{8}7,{16}3,4,,2,,
{8}3,3,{16}7pp4[4:1],8,,1,{2},
{8}75,64,{16}3,4,,{8}2,{8}2,{16}6,5,,7,,
{4}1b-5[8:1],1b^4[8:1]*^6[8:1],1bw5[8:1],1b,
{8}4,34,5,56,4,35,6,57,
8h[2:1],1,2,3,{16}5h[16:3],,,6h[16:3],,,7,,
{8}8^6[8:1],8,1,2,3^1[8:1],3,4,5,
6,78,1,24,{16}6,5,6,5h[16:3],,,,,
{8}34,2,18,7,56,{16}3,4,{8}3,5,
8-6[8:1],8,1-5[8:1],1,{16}7h[16:3],,,6h[16:3],,,5,,
{8}1-5[8:1],8,7,6,6h[4:1],2,1-3[8:1],8-4[8:1],
1-5[8:1],8-6[8:1],1>8[8:3],8,1b,,,,
{8}1s5[4:1],{16},,{8}7,6h[4:1],,{16}5,6,{8}5-1[8:1],5,7-4[8:1],7,2,2,
1h[8:1],8h[8:1],7h[8:1],6h[8:1],
{8}3,3h[4:1],5,4h[4:1],,{16}3,4,{8}3-7[8:1],3,
4-6[8:1],4,1,1,{16}7,8,7,8h[16:3],,,,,
{8}6,6h[4:1],4,5h[4:1],,{16}6,5,{8}6-2[8:1],6,
5-3[8:1],5,8,8,{16}7h[8:1],,,4h[8:1]/6h[8:1],,,35,,
{8}2h[8:3],1,8,7h[4:1],,{8}6,5,46,
35,8,46,1,4b-8[8:1]/5b-8[8:1],,,,
{4}1bpp5[1:1],,{8},8h[4:1],,,{4}7h[8:1],6h[8:1],
{16}3h[8:1]/5h[8:1],,,4h[8:1]/6h[8:1],,,57,,
{4}8bp5[1:1]/6,,{8},1h[4:1],,,{4}2h[8:1],3h[8:1],
{16}6h[8:1]/4h[8:1],,,5h[8:1]/3h[8:1],,,42,,
{4}1bV35[1:1]/3,,{8},8h[4:1],,,{4}7h[8:1],6h[8:1],
{16}3h[8:1]/5h[8:1],,,4h[8:1]/6h[8:1],,,57,,
{4}8bz4[8:5]/6,,{8},1h[4:1],,,
3b/5,4/6b,2b/5,4/7b,1b/5,,,
{8}65,84,2h[4:1]/1,,7,{16}1,8,1,8,27,,
3,4,3,,6,5,6,,{16}1,8,1,,27,,,,
4,5,{8}36,2,15,6,{16}1,8,2,7,3,6,4,5,
{8}3,24,15,68,7h[8:3],8b,5b,1b,
{16}3,4,3,4,2,5,2,5,1,6,1,6,8,7,8,7,
5,6,4,7,3,8,2,1,3,5,4,6,{16},,1,8,
{16}2,4,3,5,4,6,5,7,8,7,1,6,2,5,3,4,
1b,2b,3b,4b,5b,6b,7b,8b,{32}1,2,3,4,5,6,7,8,{4}1b,
{8}2-5[8:1]/8,8,28,8,7-4[8:1]/1,1,71,1,
25,3,48,7,{16}16,,6,5,,5,8,,
{8}7-4[8:1]/1,1,71,1,2-5[8:1]/8,8,28,8,
74,6,51,2,{16}83,,3,4,,4,2,,
{8}6^1[8:1],6,5,4,3^8[8:1],3,4,5,
5-1[8:1],6,57,,{16}62,,6,5,,5,8,,
{8}7^4[8:1],7,8,1,2^5[8:1],2,1,8,
5/7b,2b/4,6/8b,1b/3,4b/5b,,,,
{8}34,45,{16}6,5,,{8}7,{8}7,{16}3,4,,2,,
{8}3,3,{16}7p4[4:1],8,,1,{2},
{8}65,54,{16}3,4,,{8}2,{8}2,{16}6,5,,7,,
{16}18,,3,34,,6,65,,{8}31,2,86,7,
{8}24,35,{16}6,5,,{8}7,{8}7,{16}3,4,,2,,
{8}3,3,{16}7pp4[4:1],8,,1,{2},
{8}75,64,{16}3,4,,{8}2,{8}2,{16}6,5,,7,,
{8}3b/5,4/6b,2b/5,4/7b,1b/5pp5[1:1]*qq5[1:1],,,
