&title=Alfheim's faith
&artist=影虎。
&first=0.4
&des=Maimai's faith of 伊洛
&des_5=Maimai's faith of 伊洛
&lv_5=14
&inote_5=(200){4},{1},{4},3/6,
{16}4,5,3,6,
2,7,1,8,{4}2V41[4:1]/7V58[4:1],{2}2/7,
{16}2,3,{8}4h[8:5],{4},,,5/6,
4/8,{16}7,6,{8}5h[8:5],{4},,,4/3,
1/5,
{16}2/8,3,{8}4h[8:5],{4},,,7/3,
5/1,{16}7/8,6,{8}5h[8:5],{4},,,4/2,
8/6,
5/4qq1[4:3],{2},{4}7,
,1/8qq5[4:3],{2},3,
{8}3/4,3/4,,5/6,
{4}5/6,2/4,5/7,1/3,
4>1[4:1]/8<5[4:1],{2},{4}4-7[4:1]/8-3[4:1],
{2},{4}2/8,{8}4,5,
{4}3,{8}1,{16}7,8,{4}7v4[8:1],7/3,
2,{8}5,4,{4}6,{8}7,{16}1,8,
{4}1v4[8:1],1/7,{8}6,6,6/3,6,
6/1,6,3/5,{16}3,4,{8}3,3,3/5,3,
{12}5,6,7,4,3,2,{16}5/1w5[8:1],6,7,8,{4}1b,
{2},2h[4:3]/4q6[4:3],
{4},,,2,
{1}7h[4:3]/1q3[4:3],
{4},7,{2}8<5[2:1],
{4},1>4[2:1],{2},{4}5-8[2:1],
{2},{4}1<5[2:1],
{2},{4}4,4,
6,7h[2:1]/3qq1[2:1],{2},{4}7,
7,1,2h[2:1]/5pp7[2:1],
{2},{4}3,2,
1/7,5,6,7/3,
1b/5h[4:3],{2},{16}1,8,7,6,
5,4,3,2,{4}5b/1b,2/6,{8}4,5,
3>8[4:1],7,{4}3,{8},6,6,2,
7qq5[4:1],{4},{8}2,2,3,{4}4>1[4:1]*pp6[4:1],
{2},{12}2,4,3,7,5,6,
{4}1h[4:1],{12}6,2,2,7,3,3,8h[4:1],{6},{4}1,
{16}2,1,{8}2,8/3,4,{4}5h[4:1]/6h[4:1],
,3/7,{12}8,7,6,5/3,2,1,
8/7,6,5,4/8b,{6},{4}1b/5b,2b/6b,
{16}1,2,3,4,8/5,7,6,5,{4}1b/4,2b/6b,
{8}3/5,3,3/6,3,3/7,3,6/3,6,
6/2,6,6/1,6,{16}1,5,1,5,2,6,2,6,
3,7,3,7qq4[16:7],{4}3qq8[8:3],{2},{16}7/1V38[4:1],
6,{8}5,{4}1,6pp1[4:3],{8}3h[16:1],3h[16:1],
3h[16:1],3h[16:1],3h[16:1],3h[16:1],{4}3v4[4:1],3/7,
8h[8:5],{16}2,3,{8}4,{16}2,3,{8}4,2/8,2/8,
{16}2/8V61[4:1],3,{8}4,{4}8,3qq8[4:3],{8}6h[16:1],6h[16:1],
6h[16:1],6h[16:1],6h[16:1],6h[16:1],{4}6v5[4:1],6/2,
1h[8:5],{16}7,6,{8}5,{16}7,6,{8}5,1/7,7/1,
{16}7/1,6,{8}5h[8:3],{4},{8}3-8[8:1],2,{4}3/4,
{8}5,5,3/6-1[8:1],7,{4}6/5,{8}2,3,
4w8[8:1],5,{4}4,6/2,{8}4,3/7,
{4}1/5,{12}1,2,3,8,7,6,2,3,4,
7,6,5,3,4,5,{16}1,8,7,6,1,2,3,4,
8,7,6,5,{32}1,2,3,4,5,6,7,8,1,2,3,4,5,6,7,8,1,2,3,4,5,6,7,8,
{1}1h[4:11]/5pp8[4:9],
,,7h[4:9]/3p1[2:3],
,{4},3qq8[4:3],
{2},{4}5,
6,6v5[4:1],4,
3,3v4[4:1],5,6,
6v5[4:1],3,2,1v2[4:1],
6,7,8v7[4:1],1,
2,2v1[4:1],{2}5h[4:3],
{4},{16}1,2,3,4,5,6,7,8,1,2,3,4,
5-1[4:3],{4},,{8},{16}7,{4}7,
,{16},,,1/5,{2}1>4[4:1]/5<8[4:1],
{4},1b/5b,3b/7b,5b/1b-5[8:1],
{8}1/7-3[8:1],6,7/2-4[8:1],1,2/8<5[8:1],7,{4}8>3[8:1],
8-4[8:1],8,{8}3/5,{16}2,1,{8}8/7-3[8:1],6,
7/1>4[8:1],2,{4}1<6[8:1],1-5[8:1],1,
{12}8,7,6,4/5,3,2,{4}1/7h[4:1],{16}4,3,2,1,
8/4,5,6,7,{4}2v5[8:1]/8v5[8:1],2/8,{16}1,1,{8}1,
2/8,3,{4}4/5h[4:1],{16}4,3,2,1,8,7,6,5,
{4}4/8,{8}5/6-1[8:1],7,{4}6/4,{12}3b,7,7,
2b,6,6,1b,{6},{4}2/5,{8}4/3-8[8:1],2,
{4}5/3,{12}6b,2,2,7b,3,3,8b,{6},{8}1/2,
3/8,,{16}1,1,{4}1-4[8:1]*-3[8:1],1-6[8:1]*-7[8:1],
1w5[8:1],1<1[2:1]*>1[2:1],{2}1,
{4},{16}3,4,{8}3,2/5,6,7/1V38[4:1],2,
{4}1/6,{8}7V58[4:1],6,{4}7/3,{16}1b,{8},{16}3b/7b,
{8},2b/6b,{4}4b/8b,{8}3/7,{16}2,1,{8}8/3,{16}7,8,
{4}1/6,{16}4b/8b,{8},{16}2b/6b,{8},3b/7b,{4}1b/5b,
{12}7b/2b,3,4,5/1b,6,7,8/4b,1,2,3/7b,6,5,
4/8b,3,2,1/5b,8,7,{4}2b/6b,{16}1,1,{8}1,
2/8,4/5,{4}3/7,{8}1b/6b,7,8b/4b,2,
{12}8/3,7,6,5/7,6,5,4/6,5,4,3b/7b,{6},{4}1b/5b,
{12}4/6,3,2,3/1,2,1,8/2,1,8,
{4}3b-6[8:1]/7b-2[8:1],3b/7b,{8}1/5,1,1,1,
1,1,{16}2,6,2,6,3,7,3,7,4,8,4,8,
4,3,8,7,3,2,7,6,2,1,6,5,1,2,3,4,
8/5,7,6,5,{32}1,2,3,4,5,6,7,8,{2}1h[2:3]/5h[4:3],
{1},{4},,,3/6,
{16}4,5,3,6,2,7,1,8,{8}2b/7b,{16}3,4,{8}3,3,
2/5,6,7/3,{16}6,5,{8}6,6,{4}7/4V28[4:1],
8V64[4:1],4>1[4:1],{2}8h[4:1],
{8}7b/3b,{16}6,5,{8}6,6,7/4,3,2/6,{16}3,4,
{8}3,2,{4}5/1V35[4:1],5V71[4:1],1>5[4:1],
{2}5<1[4:1],{4}5b,{16}2,1,3,8,
4,7,5,6,4,7,3,8,{4}2/1,3/8,
{16}7,8,6,1,5,2,4,3,5,2,6,1,{4}7/8,
{16}1,8,1,8,1,7,4,6,3,5,1,8,2,6,3,7,
8/4,5,6,7,8/4,1,2,3,{8}4b/8b,4b-1[8:1]/8b-5[8:1],,4/8,
,2/6,3b/8b,5b/6b,3b/4b,5b/7b,2b/6b,8h[8:7]/4h[8:7],
{4},,,{24},7/3,6/2,5q7[8:15]/1q3[8:15],{1},,{4},,,{12},{4}1b,
