&title=Radiance
&artist=Nhato
&first=0.44999984
&des=DawnX
&lv_6=14
&inote_6=(155)
{1}
(155)
{16}
2,4,3,3,7,5,6,6,1-5[8:1],8,2,7,1,,,,
{8}
3/7x<4[4:1],,,,
{16}
1h[16:3],,,2h[16:3],,,3h[2:1],,,,,,,,5,,5h[16:3],,,1h[16:3],,,7,,
{8}
2xq5[1:1]/6,7,8h[1:1],,,,,,,,,
{24}
7,6,5,
{16}
2x/4x,,,5x/7x,,,
{8}
1x/8x,1x>4[4:1]/8x,,,,
{16}
5h[16:3],,,6h[16:3],,,7h[2:1],,,,,,,,1,,1h[16:3],,,5h[16:3],,,4,,
{8}4xqq4[1:1]*pp4[1:1],,,,,,,,,,,,
{16}
57,,,34,,,26,,
{8}
2-4[8:1]/6,,5,,
{16}
6-1[8:1],,,5,6,,2,,
{8}
3>8[8:1],,7,6,
{16}
5-8[8:1],,,4,5,,1,,
{8}
2pp1[8:3],1,8<5[8:1],,8pp4[2:1],,4,4,,,,
{16}
6,5,47,,,18,,,25,,
{8}
2>4[8:1]/5,,6,,
{16}
6<1[8:1],,,5,6,,
{8}
2,3>8[8:1],,5,6,
{16}
7<5[8:1],,,3,
{8}
7pp4[2:3],4,7b,,,,,,,,,,,,,,,,C,,,,,,,,
Ch[2:1],,E6,E7,8z4[8:1]*-5[8:1],,8b,,
2h[4:1]/6x,,
{16}
4,3,4,3,8h[8:1],,1h[8:1],,5,4,6,5,8h[8:1],,4,5,3,4,1h[8:1],,7-3[8:1],8,6,1,7b,,,,
{8}
6h[4:1]/2,,
{16}
8h[16:1],7h[16:1],8h[16:1],7h[16:1],4h[8:1],,5h[8:1],,1h[16:1],8h[16:1],2h[16:1],1h[16:1],4h[8:1],,8h[16:1],1h[16:1],7h[16:1],8h[16:1],5h[8:1],,3h[16:1],4h[16:1],2h[16:1],5h[16:1],3x,3,4,,
{8}
7h[4:1]/3,,
{16}
5h[16:1],6h[16:1],5h[16:1],6h[16:1],1h[8:1],,8h[8:1],,4h[16:1],5h[16:1],3h[16:1],4h[16:1],1h[8:1],,5h[16:1],4h[16:1],6h[16:1],5h[16:1],8h[8:1],,2-6[8:1],1h[16:1],3h[16:1],8h[16:1],2hb[1:0],,,,
{8}
8h[4:1]/4,,
{16}
2h[16:1],1h[16:1],4h[16:1],1h[16:1],2h[16:1],,6,,7h[16:1],8h[16:1],5h[16:1],8h[16:1],
{12}
7xh[12:1],,4xh[12:1]/6xh[12:1],,5xh[12:1]/3xh[12:1],,
{16}
1xh[12:1]/8xh[12:1],,,,3x-8[8:1]/7x-4[8:1],,,,3b/7b,,,,
26,,3,,57,,,6,5,,4,,35,,,,24,,3,4,2,,5,3,,6,4,,7-4[8:1],,4,,37,,2,,1>4[8:1],,,6,1,,7,,8<5[8:1],,,,2/8>3[8:1],,1,,68,,,7,5,5,6,,
48,,,,37,,2,1,2,,7,8,,1,8,,25,,6,,47,,6,5,6,,3,4,,5,4,,3-8[8:1],,4,,35,,,,6-1[8:1],5,,5,6,,4,,2<7[8:1],,8,,2>5[8:1],,4,,2v5[8:1],,6,6,2,,,,
84,,,,73,,6,5,6,,3,4,,5,4,,61,,2,,83,,2,1,2,,7,8,,1,8,,7<4[8:1],,8,,71,,,,2-5[8:1],,,,12,,8h[8:1],,
{24}
2x,3,4,5,6,7,3x,4,5,6,7,8,
{16}
1b/5b,,,3b/7b,,,4b/8b,,C1f,,,,,,,,
E6,,,E5,,,E4,,,,,,,,E7,,B5,,,B4,,,E3,,Ch[8:7],,,,,,,,,,,,,,A2,A3,
{8}
A4,,,,,,45,,1h[2:1]/8,,,,3h[2:1],,,,5h[2:1],,,,7h[2:1],,,,2h[2:1],,,,4h[2:1],,,,6h[2:1],,7,,
{16}
8h[2:1],,,1,,,1,,
{8}
1h[2:1],,,,3h[2:1],,,,5h[2:1],,,,7h[2:1],,,,2h[2:1],,,,4h[2:1],,,,6h[2:1],,7,,
{16}
8h[2:1],,,1,,,1,,
{8}
2>5[4:1],,1,,8>3[4:1],,7,,6<1b[4:1],,5,,4<7b[4:1],,3,,2-7[4:1],,7-4[4:1],,4-1[4:1],,
1-5[4:1],,5-2b[4:1],,2-7b[4:1],,7-4b[4:1],,4,,
6,6,68,6,16,6,26,6,36,3,13,3,38,3,37,3,
{16}
7,8,6,1,5,2,4,3,1,2,8,3,7,4,6,5,8xh[4:1],,,,4,,
{24}
2,1,2,
{16}
8w4[8:1],1,7,,8b,,,,
2-5[8:1]/5,,34,,25,,6,7,8-4[8:1],,3-8[8:1],3,8,,3,,
7-4[8:1],,65,,74,,3,2,1-5[8:1],,6-1[8:1],6,1,,6,,
2-6[8:1],,3,,5<8[8:1],,4,,1-6[8:1]/5,,2-5[8:1],2,1,,2,,
8-4[8:1],,,,2-8[8:1]/8,,,,2/6-4[8:1],,,3,6,,2,,
1q5[8:1],,2,,1/7>2[8:1],,6,,3/7-4[8:1],,5,5,7,,3,,
2p6[8:1],,3,,2/4>1[8:1],,5,,8/4-8[8:1],,6,6,4,,5,,
1-5[8:1],,,,1/7-1[8:1],,,,3-5[8:1]/7,,,6,3,,7,,
8h[8:1],,5,6,1h[8:1],,4,3,8-4[8:1],,2-5[8:1],2,8,,2,,
7x,8,7,8,6,1,6,1,6,5,7,2,1,3,8,4,1,2,1,2,8,3,8,3,8,5,6,1,4,3,8,4,
7,8,7,1,7,2,7,3,7,5,6,2,4,3,5,4,1,2,8,2,7,2,6,2,5,3,7,4,6,2,8,1,
27,,35,,46,,58,,47,,26,,38,,15,,2,4,2,4,3,5,3,5,4,6,1,5,3,8,2,7,
{32}
1xh[16:1]/6b,5,4,,,,
8xh[16:1]/3b,4,5,,,,
1xh[16:1]/6b,5,4,,,,
8xh[16:1]/3b,4,5,,,,
1xpp5[8:3]/6b,5,4,,,,
1b,,,,,,,,,,,,,,,,,,
{16}
4x>1[8:1]/8x<5[8:1],,,,4b/8b,,,,
8x,7,8,7,1,6,1,6,2,4,3,8,5,6,1,5,
3,4,3,4,2,5,2,5,1,6,4,8,3,5,2,6,1,5,1,5,2,6,2,6,3,8,4,6,1,5,2,4,2,1,3,8,5,6,
{24}
4,5,4,
{16}
3x/6x,,7,7x/8x,,2,1x/2x,,
1x,2,1,2,8,3,8,3,7,5,6,1,4,3,8,4,
6,5,6,5,7,4,7,4,8,3,5,1,6,4,7,3,8,4,8,4,7,3,7,3,6,1,5,3,8,4,7,5,8,4,6,6,1,5,3,3,
8-4b[8:1],1,7,2,8,,,,
2,1,3,8,2,1,4,8,3,1,3,8,4,8,1,5,8,7,1,6,8,7,1,5,2,4,2,7,5,7,4,6,3,5,2,4,1,8,2,7,4,6,
1,1,5,3,8,8,3,4,2,2,6,5,7,7,7xh[8:1]/8xh[8:1],,,5xh[8:1]/4xh[8:1],,,2xh[16:1]/1xh[16:1],,2,1,3,8,5,6,4,7,2,1,3,7,8,6,1,5,8,7,1,6,3,4,2,5,1,7,5,8,2,4,1,5,2,4,3,7,5,6,1,3,2,8,6,7,1,8,3,6,
{32}
1,2,3,4,5,6,7,8,1,2,3,4,5,6,7,8,
D1,D2,D3,D4,D5,D6,D7,D8,E1,E2,E3,E4,E5,E6,E7,E8,
{1}
E1f/C,
E
