&title=Lumina
&artist=Wisp X & Xomu
&first=1.6
&des=Alix as ''ilLUMINAtion''
&lv_5=13
&inote_5=(125)
{8}
3,,
3h[8:2],,
6pp1[8:4],,,,,,
4,,
4h[8:2],,
7>3[8:2],,,,
5h[8:2],,
6h[8:2],,
7h[8:2],,
8h[8:1],
{32}
,,
E3,
B3,
{8}
B4,
E6,
E7,
E8,
E2,
E3,
E4,,
8-3[8:2],,
3-5[8:2],,
5-1[8:2],,
B3,,
2>5[8:2],,
5-8[8:2],,
8-3-5[8:2],,
A6,,
7h[8:2],,
5,
{16}
E1,
B1,
B2,,
4,,
5,,
B8,
B7,
E7,,
3,,
3,,
4,,
4,,
35,,
26,,,,
{8}
8<5[8:5]/4,,
3,,
2,,
1,,
8>3[8:5],,
7,,
6,,
5,,
4h[8:4],,
8,,
8h[8:4],,
6,,
6h[8:2],,
2h[8:2],
{32}
,,
B6,
B5,
E5,,,,
{8}
2,
1,,
3h[8:3],
4,
5,
6,
6h[8:3],
5,
4,
3,
{32}
E3,
B2,
B1,,,,
E7,
B7,
B8,,,,
{8}
4,
5,
6,
74,,
5p3[8:5]/2,,,,,,,
{16}
7,
8,
1pp4[8:4],,,,,,,,,,,,
A7/E8/A8,,,,
65,,
7,,
58,,
7,,
65,,
4,,
53,,,,
34,,
2,,
14,,
2,,
34,,
5,,
64,,,,
3h[8:2],,
4,,
5,,
3,
4,,
5,
4,,
35,,,,
6h[8:2],,
5,,
4,,
6,
5,,
4,
5,,
64,,
2,
8,
2h[8:2],,,,
4h[8:2],,,,
5h[8:2],,,,
7h[8:2],,,,
2-5-3[8:2],,
1,,
8,,,,
7<5[8:2],,
8,,
1,,
2,
3,
4p8[8:4]*q8[8:4],,,,,,,,,,,,,,
,,
24,,
3,,
54,,
3,
3,
4,
2,
6,
5,
7,
8,
1,
2,
8hxb[8:2],,,,
3,,
4,,
6,
5,,
5,
6,,
7,
4,
7h[8:2],,,,
8-4-2[8:2],,,,
1,,,,
1-5-7[8:2],,,,
2h[8:2],,,,,,
8,,
8h[8:2],,,,
2-4-6[8:2],,,,
6<1[8:2],,,,
1>4[8:2],,,,
C1,,,,
6,
6,
5,
7,
1h[8:2],,,,
B4/B3,,,,
7h[8:2],,,,
5h[8:1],,
8,
8,
1h[8:2],,,,
3h[8:2],,,,
8h[8:2],,,,
B2/E3,,
5,
5,
4-1-7p3[8:4],,,,
5,,,,
6,,,,
7,,
8,
8,
4,,
{32}
B5,
B6,
E7,,
B2/B3,,,,
E1,
B8,
B7,,
E3/E4,,,,
{8}
5,
64,
73,
8b/1b,
{16}
4,
2,
5h[8:1],,
8,
6,
1h[8:1],,
3,,
45,,
6,,
81,,
4,
2,
5h[8:1],,
8,
6,
1h[8:1],,
4,
3,
4,
2,
4,
1,
E6,
E2,
E7,
E3,
E8,
E4,
B5,
B1,
B7,
B3,
B6,
B2,
B8,
B4,
E7,
E3,
8,
4,
7,
3,
6,
2,
5,
1,
4-6-8[8:2],,
1,,
2,,
3,,
4,,
7,
5,
8h[8:1],,
3,
5,
2h[8:1],,
3,,
45,,
6,,
84,,
7,
5,
8h[8:1],,
3,
5,
2h[8:1],,
3,,
45,,
6,
5,
8h[8:1],,
2,
4,
1h[8:1],,
7,
5,
8h[8:1],,
2,,
45,,
6,,
8h[8:4]/1,,
E2,
E3,
E4,,
E7,
E6,
E5,,
1,,
72,,,,
3b/4b,,
1,
2,
8h[8:1],,
5,
6,
4h[8:1],,
7,,
81,,
2,,
34,,
1,
2,
8h[8:1],,
5,
6,
4h[8:1],,
7,,
81,,
3,,
B2,
B6,
B4,
B8,
B3,
B7,
B1,
B5,
E2,
E8,
E4,
E6,
B1,
B8,
B3,
B6,
1,
8,
3,
6,
2,
7,
4,
5,
2-4-8[8:2],,
1,,
7,,
6,,
5,,
3,
4,
2,
5,
4,
5,
2h[8:1],,
4,,
1h[8:1],,
4,,
73,,
6,
5,
7,
4,
5,
4,
7h[8:1],,
5,,
8h[8:1],,
5,,
73,,
2,
1,
3,
1,
2,
1,
3h[8:1],,
E2,,
4h[8:1],,
E8,,
62,,
3,
5h,
3,
7,
4,
6,
1h,
5,
3,
7h,
E5,
E1,
E3,
E7,
2b>4q8-2[8:5],,,,
{8}
,,,,,,
7<5p1-7[8:5],,,,,,,,
4-8-3-5[8:5],,,,,,,,
7-4[8:2],,
4q8[8:2],,
8-6-4[8:2],
1,
2,
3,
2h[8:2],,
1h[8:2],,
8h[8:2],,
E2,
E3,
4h[8:2],,
5h[8:2],,
6h[8:2],,
E4,
E3,
1h[8:2],,
8h[8:2],,
7h[8:2],,
E6,
E5,
3>6[8:3]b,,
E3,,
E7,
4,
53,
62,
7b/1b-5[8:1],
8,
1/7-4[8:1],
8,
2-6[8:1]/7,
1,
28,,
5,
5h[8:2],
4,
3,
2-5[8:1],
1-6[8:1],
2,
1,
2h[8:6],,
E4,
E5,
E6,
E7,
8-4[8:1],
8,
2-5[8:1],
2,
7-3[8:1],
8,
2-5[8:1],
1,
8,,
7<4[8:1],
8,
1,
2,
3-8[8:1]b,
4,
5,
6,
7h[8:6],,
E6,
E5,
E4,
E3,
1h[16:4],
{16}
5,
6,
7h[8:6],,,,
E1,,
D2,
A2,
D3,,
E4,,
1,,,,
34,,
2,,
56,,
7,,
34,,
18,,
5,
6,
4,
7,
{8}
2b>5[8:1],
1,
2/6-1[8:1],
7,
6/4-8[8:1],
3,
47,,
6,
6h[8:2],
4,
5,
7-3[8:1],
8-4[8:1],
7,
8,
7h[8:6],,
E1,
E2,
E3,
E4,
5-1[8:1],
4,
3-7[8:1],
2,
1-5[8:1],
8,
7-3[8:1],
6,
5,,
4-6v7[8:2],
4,
3,
2,
8-2v3[8:2]b,
8,
7,
6,
5h[8:2],,
4h[8:2],,
6h[8:2],,
1,
{16}
3,
4,
3h[8:1],,
E2,,
4h[8:1],,
E1,,
5h[8:1],,
E8,,
6h[8:1],,
E1,,
2,
4,
2,
4,
3,
5,
4,
6,
1w5[8:1],,
82,,
1,,,,
7/3-5-7-1-3<3[4:13],,,,
B1,
B3,
B5,
B7,,,,,
B8,
B6,
B4,
B2,,,,,
B1,
B3,
B5,
B7,,,,,
B8,
B6,
B4,
B2,,,,,
B1,
B3,
B5,
B7,,,,,
B8,
B6,
B4,
B2,,,,,
B1,
B3,
B5,
B7,,,,,
84,,,,
2h[8:2],,,,
4,
3,
4,
2,
4h[8:2],,,,
2,
3,
2,
4,
2h[8:6],,,,
E5,,,,
E7,,,,
E1,,,,
7h[8:2],,,,
5,
6,
5,
7,
5h[8:2],,,,
7,
6,
7,
5,
7h[8:2],,,,
1h[8:2],,,,
3h[8:2],,,,
5w1[12:1]b,,,,
